<?xml version="1.0" standalone="no"?>
<!DOCTYPE svg PUBLIC "-//W3C//DTD SVG 1.1//EN" "http://www.w3.org/Graphics/SVG/1.1/DTD/svg11.dtd" >
<svg xmlns="http://www.w3.org/2000/svg">
<metadata>Generated by IcoMoon</metadata>
<defs>
<font id="cryptowallet-argon" horiz-adv-x="1024">
<font-face units-per-em="1024" ascent="960" descent="-64" />
<missing-glyph horiz-adv-x="1024" />
<glyph unicode="&#x20;" horiz-adv-x="512" d="" />
<glyph unicode="&#xe900;" glyph-name="24" d="M725.333 405.333c23.564 0 42.667-19.103 42.667-42.667s-19.103-42.667-42.667-42.667v0-21.333c0-23.564-19.103-42.667-42.667-42.667s-42.667 19.103-42.667 42.667v0 21.333h-106.667c-0.002 0-0.003 0-0.005 0-23.564 0-42.667 19.103-42.667 42.667 0 5.38 0.996 10.528 2.813 15.268l-0.098-0.292 64 170.667c6.241 16.318 21.77 27.696 39.957 27.696 23.567 0 42.672-19.105 42.672-42.672 0-5.38-0.996-10.528-2.813-15.268l0.098 0.292-42.389-113.024h45.099v42.667c0 23.564 19.103 42.667 42.667 42.667s42.667-19.103 42.667-42.667v0-42.667zM853.333 770.176v104.491c0 23.564 19.103 42.667 42.667 42.667s42.667-19.103 42.667-42.667v0-213.333c0-23.564-19.103-42.667-42.667-42.667v0h-213.333c-23.564 0-42.667 19.103-42.667 42.667s19.103 42.667 42.667 42.667v0h115.584c-71.787 80.32-174.933 128-286.251 128-212.075 0-384-171.925-384-384s171.925-384 384-384 384 171.925 384 384c0 23.564 19.103 42.667 42.667 42.667s42.667-19.103 42.667-42.667v0c0-259.2-210.133-469.333-469.333-469.333s-469.333 210.133-469.333 469.333 210.133 469.333 469.333 469.333c131.648 0 254.080-54.656 341.333-147.157zM444.117 400.469l-51.584-59.136h34.133c23.564 0 42.667-19.103 42.667-42.667s-19.103-42.667-42.667-42.667v0h-128c-36.629 0-56.235 43.115-32.149 70.72l112.597 129.024c3.040 3.66 4.885 8.407 4.885 13.586 0 11.782-9.551 21.333-21.333 21.333s-21.331-9.549-21.333-21.33v0c0-23.564-19.103-42.667-42.667-42.667s-42.667 19.103-42.667 42.667v0c0 58.91 47.756 106.667 106.667 106.667s106.667-47.756 106.667-106.667v0c0-25.152-8.789-49.067-25.216-68.864z" />
<glyph unicode="&#xe901;" glyph-name="ad-1" d="M768 234.667h106.667c11.733 0 21.333 9.579 21.333 21.248v554.837c-0.012 11.738-9.53 21.249-21.269 21.249-0.075 0-0.15 0-0.225-0.001h-725.024c-11.904 0-21.483-9.579-21.483-21.483v-725.035c0-0.044-0.001-0.097-0.001-0.149 0-11.782 9.551-21.333 21.333-21.333 0 0 0 0 0.001 0h106.667v213.333c0 23.564 19.103 42.667 42.667 42.667s42.667-19.103 42.667-42.667v0-213.333h128v213.333c0 23.564 19.103 42.667 42.667 42.667s42.667-19.103 42.667-42.667v0-213.333h128v213.333c0 23.564 19.103 42.667 42.667 42.667s42.667-19.103 42.667-42.667v0-42.667zM768 21.333c0-23.564-19.103-42.667-42.667-42.667v0h-576c0 0 0 0 0 0-58.91 0-106.667 47.756-106.667 106.667 0 0.052 0 0.105 0 0.157v-0.008 725.035c0 0.019 0 0.041 0 0.064 0 58.958 47.794 106.752 106.752 106.752 0.022 0 0.045 0 0.067 0h725.031c0.063 0 0.138 0 0.213 0 58.868 0 106.591-47.716 106.603-106.58v-554.838c-0.073-58.864-47.796-106.557-106.664-106.581h-106.669v-128zM256 661.333c-23.564 0-42.667 19.103-42.667 42.667s19.103 42.667 42.667 42.667v0h192c23.564 0 42.667-19.103 42.667-42.667s-19.103-42.667-42.667-42.667v0h-192zM256 490.667c-23.564 0-42.667 19.103-42.667 42.667s19.103 42.667 42.667 42.667v0h490.667c23.564 0 42.667-19.103 42.667-42.667s-19.103-42.667-42.667-42.667v0h-490.667z" />
<glyph unicode="&#xe902;" glyph-name="add-pluss-1" d="M469.333 490.667h-384c-23.564 0-42.667-19.103-42.667-42.667s19.103-42.667 42.667-42.667v0h384v-384c0-23.564 19.103-42.667 42.667-42.667s42.667 19.103 42.667 42.667v0 384h384c23.564 0 42.667 19.103 42.667 42.667s-19.103 42.667-42.667 42.667v0h-384v384c0 23.564-19.103 42.667-42.667 42.667s-42.667-19.103-42.667-42.667v0-384z" />
<glyph unicode="&#xe903;" glyph-name="add-pluss-2" d="M874.517 576c0.038 0 0.083 0 0.128 0 58.922 0 106.688-47.766 106.688-106.688 0-0.008 0-0.015 0-0.023v0.001-42.581c0-58.934-47.775-106.709-106.709-106.709-0.038 0-0.075 0-0.113 0h-234.511v-234.517c0-0.038 0-0.083 0-0.128 0-58.922-47.766-106.688-106.688-106.688-0.008 0-0.015 0-0.023 0h-42.58c-58.934 0-106.709 47.775-106.709 106.709 0 0.038 0 0.075 0 0.113v-0.006 234.517h-234.517c-0.038 0-0.083 0-0.128 0-58.922 0-106.688 47.766-106.688 106.688 0 0.008 0 0.015 0 0.023v-0.001 42.581c0 58.934 47.775 106.709 106.709 106.709 0.038 0 0.075 0 0.113 0h234.511v234.517c0 0.038 0 0.083 0 0.128 0 58.922 47.766 106.688 106.688 106.688 0.008 0 0.015 0 0.023 0h42.58c58.934 0 106.709-47.775 106.709-106.709 0-0.038 0-0.075 0-0.113v0.006-234.517h234.517zM554.667 533.333v277.184c0 11.947-9.557 21.483-21.376 21.483h-42.581c-11.861 0-21.376-9.557-21.376-21.483v-277.184c0-23.564-19.103-42.667-42.667-42.667v0h-277.184c-11.947 0-21.483-9.557-21.483-21.376v-42.581c0-11.861 9.557-21.376 21.483-21.376h277.184c23.564 0 42.667-19.103 42.667-42.667v0-277.184c0-11.947 9.557-21.483 21.376-21.483h42.581c11.861 0 21.376 9.557 21.376 21.483v277.184c0 23.564 19.103 42.667 42.667 42.667v0h277.184c11.947 0 21.483 9.557 21.483 21.376v42.581c0 11.861-9.557 21.376-21.483 21.376h-277.184c-23.564 0-42.667 19.103-42.667 42.667v0z" />
<glyph unicode="&#xe904;" glyph-name="add-pluss-3" d="M512-21.333c-259.2 0-469.333 210.133-469.333 469.333s210.133 469.333 469.333 469.333 469.333-210.133 469.333-469.333-210.133-469.333-469.333-469.333zM512 64c212.075 0 384 171.925 384 384s-171.925 384-384 384-384-171.925-384-384 171.925-384 384-384zM554.667 490.667h149.333c23.564 0 42.667-19.103 42.667-42.667s-19.103-42.667-42.667-42.667v0h-149.333v-149.333c0-23.564-19.103-42.667-42.667-42.667s-42.667 19.103-42.667 42.667v0 149.333h-149.333c-23.564 0-42.667 19.103-42.667 42.667s19.103 42.667 42.667 42.667v0h149.333v149.333c0 23.564 19.103 42.667 42.667 42.667s42.667-19.103 42.667-42.667v0-149.333z" />
<glyph unicode="&#xe905;" glyph-name="alarm-1" d="M180.139 779.861c-183.296-183.275-183.296-480.427 0-663.723 7.769-8.036 18.647-13.026 30.69-13.026 23.564 0 42.667 19.103 42.667 42.667 0 12.043-4.989 22.92-13.014 30.678l-0.012 0.012c-149.973 149.973-149.973 393.088 0 543.061 8.036 7.769 13.026 18.647 13.026 30.69 0 23.564-19.103 42.667-42.667 42.667-12.043 0-22.92-4.989-30.678-13.014l-0.012-0.012zM843.861 116.139c-7.769-8.036-18.647-13.026-30.69-13.026-23.564 0-42.667 19.103-42.667 42.667 0 12.043 4.989 22.92 13.014 30.678l0.012 0.012c149.973 149.973 149.973 393.088 0 543.061-8.036 7.769-13.026 18.647-13.026 30.69 0 23.564 19.103 42.667 42.667 42.667 12.043 0 22.92-4.989 30.678-13.014l0.012-0.012c183.296-183.275 183.296-480.427 0-663.723zM330.987 629.013c7.665 7.41 18.12 11.977 29.641 11.977 23.564 0 42.667-19.103 42.667-42.667 0-11.521-4.567-21.976-11.989-29.653l0.012 0.012c-30.886-30.885-49.99-73.553-49.99-120.683s19.104-89.798 49.99-120.683v0c7.41-7.665 11.977-18.12 11.977-29.641 0-23.564-19.103-42.667-42.667-42.667-11.521 0-21.976 4.567-29.653 11.989l0.012-0.012c-99.989 99.968-99.989 262.059 0 362.027zM693.013 266.987c-7.665-7.41-18.12-11.977-29.641-11.977-23.564 0-42.667 19.103-42.667 42.667 0 11.521 4.567 21.976 11.989 29.653l-0.012-0.012c30.886 30.885 49.99 73.553 49.99 120.683s-19.104 89.798-49.99 120.683v0c-7.41 7.665-11.977 18.12-11.977 29.641 0 23.564 19.103 42.667 42.667 42.667 11.521 0 21.976-4.567 29.653-11.989l-0.012 0.012c99.989-99.968 99.989-262.059 0-362.027zM512 384c-35.346 0-64 28.654-64 64s28.654 64 64 64v0c35.346 0 64-28.654 64-64s-28.654-64-64-64v0z" />
<glyph unicode="&#xe906;" glyph-name="alarm-clock" d="M542.165 375.168c-7.702-7.723-18.354-12.501-30.121-12.501-0.015 0-0.031 0-0.046 0h-149.331c-23.564 0-42.667 19.103-42.667 42.667s19.103 42.667 42.667 42.667v0h106.667v170.667c0 23.564 19.103 42.667 42.667 42.667s42.667-19.103 42.667-42.667v0-213.333c0-11.776-4.779-22.443-12.501-30.165zM119.125 571.989c-46.612 35.412-76.401 90.877-76.401 153.3 0 106.039 85.961 192 192 192 72.053 0 134.835-39.689 167.678-98.398l0.499-0.971c32.638 8.942 70.113 14.080 108.788 14.080 0.109 0 0.218 0 0.327 0h-0.016c37.717 0 74.261-4.907 109.099-14.080 33.346 59.665 96.121 99.342 168.162 99.342 106.039 0 192-85.961 192-192 0-62.407-29.774-117.86-75.892-152.928l-0.473-0.345c21.76-51.2 33.771-107.52 33.771-166.656 0-91.52-28.8-176.32-77.867-245.803l108.032-108.032c7.41-7.665 11.977-18.12 11.977-29.641 0-23.564-19.103-42.667-42.667-42.667-11.521 0-21.976 4.567-29.653 11.989l-103.753 103.753c-76.007-71.996-178.911-116.267-292.154-116.267-0.204 0-0.409 0-0.613 0h0.031c-0.172 0-0.377 0-0.582 0-113.243 0-216.147 44.27-292.348 116.449l0.193-0.182-103.765-103.765c-7.665-7.41-18.12-11.977-29.641-11.977-23.564 0-42.667 19.103-42.667 42.667 0 11.521 4.567 21.976 11.989 29.653l108.020 108.020c-48.701 68.19-77.867 153.243-77.867 245.108 0 0.244 0 0.489 0.001 0.733v-0.038c0 59.136 12.032 115.456 33.771 166.656zM161.067 648.107c41.137 58.833 95.092 105.965 158.016 138.012l2.432 1.124c-19.582 27.219-51.168 44.736-86.847 44.736-58.91 0-106.667-47.756-106.667-106.667 0-30.351 12.676-57.742 33.024-77.166l0.042-0.039zM702.443 787.243c65.356-33.171 119.311-80.303 159.532-137.755l0.916-1.381c20.389 19.463 33.065 46.854 33.065 77.205 0 58.91-47.756 106.667-106.667 106.667-35.678 0-67.265-17.517-86.63-44.419l-0.217-0.317zM512 64c188.523 0 341.333 152.811 341.333 341.333s-152.811 341.333-341.333 341.333-341.333-152.811-341.333-341.333 152.811-341.333 341.333-341.333z" />
<glyph unicode="&#xe907;" glyph-name="arrow-down-1" d="M115.499 691.499c-7.665 7.41-18.12 11.977-29.641 11.977-23.564 0-42.667-19.103-42.667-42.667 0-11.521 4.567-21.976 11.989-29.653l426.655-426.655c7.721-7.718 18.386-12.492 30.165-12.492s22.445 4.774 30.165 12.492l426.667 426.667c7.41 7.665 11.977 18.12 11.977 29.641 0 23.564-19.103 42.667-42.667 42.667-11.521 0-21.976-4.567-29.653-11.989l-396.489-396.489-396.501 396.501z" />
<glyph unicode="&#xe908;" glyph-name="arrow-down-2" d="M169.771 655.915l-36.373-36.096c-3.333-3.274-5.399-7.828-5.399-12.865 0-5.079 2.1-9.667 5.48-12.944l0.005-0.004 350.421-347.755c7.218-7.156 17.157-11.578 28.128-11.578s20.91 4.422 28.131 11.581l-0.003-0.003 350.421 347.755c3.346 3.295 5.419 7.875 5.419 12.938 0 5.032-2.047 9.586-5.354 12.874l-36.353 36.097c-3.471 3.351-8.203 5.415-13.417 5.415-5.31 0-10.121-2.142-13.614-5.608l0.001 0.001-285.184-283.029c-7.71-7.655-18.332-12.386-30.059-12.386s-22.349 4.731-30.061 12.388l-285.16 283.027c-3.495 3.461-8.304 5.599-13.613 5.599-5.212 0-9.943-2.061-13.422-5.412l0.006 0.006zM767.147 716.288c40.704 40.384 106.581 40.533 147.264 0.192l36.352-36.096c18.884-18.75 30.573-44.725 30.573-73.43 0-28.747-11.724-54.756-30.651-73.506l-0.008-0.008-350.4-347.755c-22.638-22.466-53.82-36.35-88.245-36.35s-65.608 13.884-88.253 36.357l0.008-0.008-350.421 347.755c-18.961 18.746-30.704 44.759-30.704 73.514 0 28.713 11.708 54.692 30.611 73.422l0.008 0.008 36.373 36.096c40.619 40.32 106.539 40.213 147.264-0.192l255.083-253.184 255.147 253.184z" />
<glyph unicode="&#xe909;" glyph-name="arrow-down-3" d="M512-21.333c-259.2 0-469.333 210.133-469.333 469.333s210.133 469.333 469.333 469.333 469.333-210.133 469.333-469.333-210.133-469.333-469.333-469.333zM512 64c212.075 0 384 171.925 384 384s-171.925 384-384 384-384-171.925-384-384 171.925-384 384-384zM350.165 563.499l161.835-161.835 161.835 161.835c7.665 7.41 18.12 11.977 29.641 11.977 23.564 0 42.667-19.103 42.667-42.667 0-11.521-4.567-21.976-11.989-29.653l-191.988-191.988c-7.721-7.718-18.386-12.492-30.165-12.492s-22.445 4.774-30.165 12.492l-192 192c-7.41 7.665-11.977 18.12-11.977 29.641 0 23.564 19.103 42.667 42.667 42.667 11.521 0 21.976-4.567 29.653-11.989l-0.012 0.012z" />
<glyph unicode="&#xe90a;" glyph-name="arrow-left-1" d="M755.499 844.501c7.41 7.665 11.977 18.12 11.977 29.641 0 23.564-19.103 42.667-42.667 42.667-11.521 0-21.976-4.567-29.653-11.989l-426.655-426.655c-7.718-7.721-12.492-18.386-12.492-30.165s4.774-22.445 12.492-30.165l426.667-426.667c7.665-7.41 18.12-11.977 29.641-11.977 23.564 0 42.667 19.103 42.667 42.667 0 11.521-4.567 21.976-11.989 29.653l-396.489 396.489 396.501 396.501z" />
<glyph unicode="&#xe90b;" glyph-name="arrow-left-2" d="M780.288 192.917c40.405-40.725 40.512-106.645 0.192-147.264l-36.096-36.373c-18.738-18.91-44.717-30.618-73.43-30.618-28.755 0-54.768 11.743-73.505 30.694l-0.010 0.010-347.755 350.421c-22.466 22.638-36.35 53.82-36.35 88.245s13.884 65.608 36.357 88.253l-0.008-0.008 347.755 350.4c18.758 18.935 44.767 30.659 73.514 30.659 28.705 0 54.68-11.689 73.424-30.567l0.006-0.006 36.096-36.352c40.363-40.683 40.192-106.56-0.192-147.264l-253.184-255.125 253.184-255.104zM436.693 417.984c-7.649 7.709-12.375 18.326-12.375 30.048s4.727 22.339 12.378 30.051l-0.003-0.003 283.029 285.184c3.465 3.492 5.607 8.302 5.607 13.613 0 5.214-2.064 9.946-5.421 13.422l0.005-0.006-36.096 36.352c-3.289 3.308-7.843 5.355-12.875 5.355-5.064 0-9.643-2.073-12.936-5.417l-0.002-0.002-347.755-350.421c-7.156-7.218-11.578-17.157-11.578-28.128s4.422-20.91 11.581-28.131l-0.003 0.003 347.755-350.421c3.281-3.384 7.869-5.485 12.948-5.485 5.037 0 9.592 2.066 12.862 5.397l0.003 0.003 36.096 36.373c3.346 3.473 5.407 8.204 5.407 13.416 0 5.309-2.138 10.119-5.6 13.615l0.002-0.002-283.029 285.163z" />
<glyph unicode="&#xe90c;" glyph-name="arrow-left-3" d="M512-21.333c-259.2 0-469.333 210.133-469.333 469.333s210.133 469.333 469.333 469.333 469.333-210.133 469.333-469.333-210.133-469.333-469.333-469.333zM512 64c212.075 0 384 171.925 384 384s-171.925 384-384 384-384-171.925-384-384 171.925-384 384-384zM627.499 609.835l-161.835-161.835 161.835-161.835c7.41-7.665 11.977-18.12 11.977-29.641 0-23.564-19.103-42.667-42.667-42.667-11.521 0-21.976 4.567-29.653 11.989l-191.988 191.988c-7.718 7.721-12.492 18.386-12.492 30.165s4.774 22.445 12.492 30.165l192 192c7.665 7.41 18.12 11.977 29.641 11.977 23.564 0 42.667-19.103 42.667-42.667 0-11.521-4.567-21.976-11.989-29.653l0.012 0.012z" />
<glyph unicode="&#xe90d;" glyph-name="arrow-right-1" d="M268.501 51.499c-7.41-7.665-11.977-18.12-11.977-29.641 0-23.564 19.103-42.667 42.667-42.667 11.521 0 21.976 4.567 29.653 11.989l426.655 426.655c7.718 7.721 12.492 18.386 12.492 30.165s-4.774 22.445-12.492 30.165l-426.667 426.667c-7.665 7.41-18.12 11.977-29.641 11.977-23.564 0-42.667-19.103-42.667-42.667 0-11.521 4.567-21.976 11.989-29.653l396.489-396.489-396.501-396.501z" />
<glyph unicode="&#xe90e;" glyph-name="arrow-right-2" d="M304.085 105.771l36.096-36.373c3.274-3.333 7.828-5.399 12.865-5.399 5.079 0 9.667 2.1 12.944 5.48l0.004 0.005 347.755 350.421c7.156 7.218 11.578 17.157 11.578 28.128s-4.422 20.91-11.581 28.131l0.003-0.003-347.755 350.421c-3.295 3.346-7.875 5.419-12.938 5.419-5.032 0-9.586-2.047-12.874-5.354l-36.097-36.353c-3.351-3.471-5.415-8.203-5.415-13.417 0-5.31 2.142-10.121 5.608-13.614l-0.001 0.001 283.029-285.184c7.655-7.71 12.386-18.332 12.386-30.059s-4.731-22.349-12.388-30.061l-283.027-285.16c-3.461-3.495-5.599-8.304-5.599-13.613 0-5.212 2.061-9.943 5.412-13.422l-0.006 0.006zM496.896 448l-253.184 255.147c-40.384 40.683-40.533 106.56-0.192 147.243l36.096 36.352c18.75 18.884 44.725 30.573 73.43 30.573 28.747 0 54.756-11.724 73.506-30.651l0.008-0.008 347.755-350.4c22.466-22.638 36.35-53.82 36.35-88.245s-13.884-65.608-36.357-88.253l0.008 0.008-347.755-350.4c-18.746-18.961-44.759-30.704-73.514-30.704-28.713 0-54.692 11.708-73.422 30.611l-0.008 0.008-36.096 36.373c-40.32 40.619-40.213 106.539 0.192 147.264l253.184 255.083z" />
<glyph unicode="&#xe90f;" glyph-name="arrow-right-3" d="M512-21.333c-259.2 0-469.333 210.133-469.333 469.333s210.133 469.333 469.333 469.333 469.333-210.133 469.333-469.333-210.133-469.333-469.333-469.333zM512 64c212.075 0 384 171.925 384 384s-171.925 384-384 384-384-171.925-384-384 171.925-384 384-384zM396.501 286.165l161.835 161.835-161.835 161.835c-7.41 7.665-11.977 18.12-11.977 29.641 0 23.564 19.103 42.667 42.667 42.667 11.521 0 21.976-4.567 29.653-11.989l191.988-191.988c7.718-7.721 12.492-18.386 12.492-30.165s-4.774-22.445-12.492-30.165l-192-192c-7.665-7.41-18.12-11.977-29.641-11.977-23.564 0-42.667 19.103-42.667 42.667 0 11.521 4.567 21.976 11.989 29.653l-0.012-0.012z" />
<glyph unicode="&#xe910;" glyph-name="arrow-up-1" d="M908.501 204.501c7.665-7.41 18.12-11.977 29.641-11.977 23.564 0 42.667 19.103 42.667 42.667 0 11.521-4.567 21.976-11.989 29.653l-426.655 426.655c-7.721 7.718-18.386 12.492-30.165 12.492s-22.445-4.774-30.165-12.492l-426.667-426.667c-7.41-7.665-11.977-18.12-11.977-29.641 0-23.564 19.103-42.667 42.667-42.667 11.521 0 21.976 4.567 29.653 11.989l396.489 396.489 396.501-396.501z" />
<glyph unicode="&#xe911;" glyph-name="arrow-up-2" d="M256.917 179.712c-40.725-40.405-106.645-40.512-147.264-0.192l-36.373 36.096c-18.91 18.738-30.618 44.717-30.618 73.43 0 28.755 11.743 54.768 30.694 73.505l0.010 0.010 350.421 347.755c22.638 22.466 53.82 36.35 88.245 36.35s65.608-13.884 88.253-36.357l-0.008 0.008 350.4-347.755c18.935-18.758 30.659-44.767 30.659-73.514 0-28.705-11.689-54.68-30.567-73.424l-0.006-0.006-36.352-36.096c-40.683-40.363-106.56-40.192-147.264 0.192l-255.125 253.184-255.104-253.184zM481.984 523.307c7.709 7.649 18.326 12.375 30.048 12.375s22.339-4.727 30.051-12.378l-0.003 0.003 285.184-283.029c3.492-3.465 8.302-5.607 13.613-5.607 5.214 0 9.946 2.064 13.422 5.421l-0.006-0.005 36.352 36.096c3.308 3.289 5.355 7.843 5.355 12.875 0 5.064-2.073 9.643-5.417 12.936l-0.002 0.002-350.421 347.755c-7.218 7.156-17.157 11.578-28.128 11.578s-20.91-4.422-28.131-11.581l0.003 0.003-350.421-347.755c-3.384-3.281-5.485-7.869-5.485-12.948 0-5.037 2.066-9.592 5.397-12.862l0.003-0.003 36.373-36.096c3.473-3.346 8.204-5.407 13.416-5.407 5.309 0 10.119 2.138 13.615 5.6l-0.002-0.002 285.163 283.029z" />
<glyph unicode="&#xe912;" glyph-name="arrow-up-3" d="M512-21.333c-259.2 0-469.333 210.133-469.333 469.333s210.133 469.333 469.333 469.333 469.333-210.133 469.333-469.333-210.133-469.333-469.333-469.333zM512 64c212.075 0 384 171.925 384 384s-171.925 384-384 384-384-171.925-384-384 171.925-384 384-384zM673.835 332.501l-161.835 161.835-161.835-161.835c-7.665-7.41-18.12-11.977-29.641-11.977-23.564 0-42.667 19.103-42.667 42.667 0 11.521 4.567 21.976 11.989 29.653l191.988 191.988c7.721 7.718 18.386 12.492 30.165 12.492s22.445-4.774 30.165-12.492l192-192c7.41-7.665 11.977-18.12 11.977-29.641 0-23.564-19.103-42.667-42.667-42.667-11.521 0-21.976 4.567-29.653 11.989l0.012-0.012z" />
<glyph unicode="&#xe913;" glyph-name="backspace" d="M597.333 508.331l55.168 55.168c7.665 7.41 18.12 11.977 29.641 11.977 23.564 0 42.667-19.103 42.667-42.667 0-11.521-4.567-21.976-11.989-29.653l-55.156-55.156 55.168-55.168c7.41-7.665 11.977-18.12 11.977-29.641 0-23.564-19.103-42.667-42.667-42.667-11.521 0-21.976 4.567-29.653 11.989l-55.156 55.156-55.168-55.168c-7.665-7.41-18.12-11.977-29.641-11.977-23.564 0-42.667 19.103-42.667 42.667 0 11.521 4.567 21.976 11.989 29.653l55.156 55.156-55.168 55.168c-7.41 7.665-11.977 18.12-11.977 29.641 0 23.564 19.103 42.667 42.667 42.667 11.521 0 21.976-4.567 29.653-11.989l55.156-55.156zM874.581 128h-498.261c-47.403 0-106.731 25.941-138.752 60.672l-163.179 176.939c-42.325 45.867-42.347 118.869 0 164.779l163.2 176.939c31.936 34.645 91.456 60.672 138.731 60.672h498.24c59.115 0 106.773-47.787 106.773-106.837v-426.325c0-0.025 0-0.055 0-0.085 0-58.958-47.794-106.752-106.752-106.752v0zM874.581 213.333c11.819 0 21.419 9.579 21.419 21.504v426.325c0 11.947-9.515 21.504-21.419 21.504h-498.261c-23.467 0-60.224-16.064-76.011-33.195l-163.2-176.917c-12.181-13.227-12.16-35.883 0-49.109l163.2-176.917c15.851-17.195 52.437-33.195 76.011-33.195h498.24z" />
<glyph unicode="&#xe914;" glyph-name="battery-charge" d="M213.333 366.549l243.2 209.451 51.2-116.373 217.6 69.824-243.2-209.451-51.2 116.373z" />
<glyph unicode="&#xe915;" glyph-name="battery-discharged" d="M896 576h42.667c23.564 0 42.667-19.103 42.667-42.667v0-170.667c0-23.564-19.103-42.667-42.667-42.667v0h-42.667v-42.645c-0.036-58.93-47.817-106.688-106.752-106.688-0.022 0-0.045 0-0.067 0h-639.698c-0.019 0-0.041 0-0.064 0-58.935 0-106.715 47.758-106.752 106.684v341.316c0.049 58.921 47.824 106.667 106.752 106.667 0.023 0 0.045 0 0.068 0h639.698c0.019 0 0.041 0 0.064 0 58.935 0 106.715-47.758 106.752-106.684v-42.649zM128 618.645v-341.312c0-11.733 9.6-21.333 21.483-21.333h639.701c11.883 0 21.483 9.579 21.483 21.355v341.312c0 11.733-9.6 21.333-21.483 21.333h-639.701c-11.883 0-21.483-9.579-21.483-21.355z" />
<glyph unicode="&#xe916;" glyph-name="battery-full" d="M896 576h42.667c23.564 0 42.667-19.103 42.667-42.667v0-170.667c0-23.564-19.103-42.667-42.667-42.667v0h-42.667v-42.645c-0.036-58.93-47.817-106.688-106.752-106.688-0.022 0-0.045 0-0.067 0h-639.698c-0.019 0-0.041 0-0.064 0-58.935 0-106.715 47.758-106.752 106.684v341.316c0.049 58.921 47.824 106.667 106.752 106.667 0.023 0 0.045 0 0.068 0h639.698c0.019 0 0.041 0 0.064 0 58.935 0 106.715-47.758 106.752-106.684v-42.649zM128 618.645v-341.312c0-11.733 9.6-21.333 21.483-21.333h639.701c11.883 0 21.483 9.579 21.483 21.355v341.312c0 11.733-9.6 21.333-21.483 21.333h-639.701c-11.883 0-21.483-9.579-21.483-21.355zM170.667 554.667c0 23.564 19.103 42.667 42.667 42.667s42.667-19.103 42.667-42.667v0-213.333c0-23.564-19.103-42.667-42.667-42.667s-42.667 19.103-42.667 42.667v0 213.333zM298.667 554.667c0 23.564 19.103 42.667 42.667 42.667s42.667-19.103 42.667-42.667v0-213.333c0-23.564-19.103-42.667-42.667-42.667s-42.667 19.103-42.667 42.667v0 213.333zM426.667 554.667c0 23.564 19.103 42.667 42.667 42.667s42.667-19.103 42.667-42.667v0-213.333c0-23.564-19.103-42.667-42.667-42.667s-42.667 19.103-42.667 42.667v0 213.333zM554.667 554.667c0 23.564 19.103 42.667 42.667 42.667s42.667-19.103 42.667-42.667v0-213.333c0-23.564-19.103-42.667-42.667-42.667s-42.667 19.103-42.667 42.667v0 213.333zM682.667 554.667c0 23.564 19.103 42.667 42.667 42.667s42.667-19.103 42.667-42.667v0-213.333c0-23.564-19.103-42.667-42.667-42.667s-42.667 19.103-42.667 42.667v0 213.333z" />
<glyph unicode="&#xe917;" glyph-name="battery-half" d="M896 576h42.667c23.564 0 42.667-19.103 42.667-42.667v0-170.667c0-23.564-19.103-42.667-42.667-42.667v0h-42.667v-42.645c-0.036-58.93-47.817-106.688-106.752-106.688-0.022 0-0.045 0-0.067 0h-639.698c-0.019 0-0.041 0-0.064 0-58.935 0-106.715 47.758-106.752 106.684v341.316c0.049 58.921 47.824 106.667 106.752 106.667 0.023 0 0.045 0 0.068 0h639.698c0.019 0 0.041 0 0.064 0 58.935 0 106.715-47.758 106.752-106.684v-42.649zM128 618.645v-341.312c0-11.733 9.6-21.333 21.483-21.333h639.701c11.883 0 21.483 9.579 21.483 21.355v341.312c0 11.733-9.6 21.333-21.483 21.333h-639.701c-11.883 0-21.483-9.579-21.483-21.355zM170.667 554.667c0 23.564 19.103 42.667 42.667 42.667s42.667-19.103 42.667-42.667v0-213.333c0-23.564-19.103-42.667-42.667-42.667s-42.667 19.103-42.667 42.667v0 213.333zM298.667 554.667c0 23.564 19.103 42.667 42.667 42.667s42.667-19.103 42.667-42.667v0-213.333c0-23.564-19.103-42.667-42.667-42.667s-42.667 19.103-42.667 42.667v0 213.333zM426.667 554.667c0 23.564 19.103 42.667 42.667 42.667s42.667-19.103 42.667-42.667v0-213.333c0-23.564-19.103-42.667-42.667-42.667s-42.667 19.103-42.667 42.667v0 213.333z" />
<glyph unicode="&#xe918;" glyph-name="battery-low" d="M896 576h42.667c23.564 0 42.667-19.103 42.667-42.667v0-170.667c0-23.564-19.103-42.667-42.667-42.667v0h-42.667v-42.645c-0.036-58.93-47.817-106.688-106.752-106.688-0.022 0-0.045 0-0.067 0h-639.698c-0.019 0-0.041 0-0.064 0-58.935 0-106.715 47.758-106.752 106.684v341.316c0.049 58.921 47.824 106.667 106.752 106.667 0.023 0 0.045 0 0.068 0h639.698c0.019 0 0.041 0 0.064 0 58.935 0 106.715-47.758 106.752-106.684v-42.649zM128 618.645v-341.312c0-11.733 9.6-21.333 21.483-21.333h639.701c11.883 0 21.483 9.579 21.483 21.355v341.312c0 11.733-9.6 21.333-21.483 21.333h-639.701c-11.883 0-21.483-9.579-21.483-21.355zM170.667 554.667c0 23.564 19.103 42.667 42.667 42.667s42.667-19.103 42.667-42.667v0-213.333c0-23.564-19.103-42.667-42.667-42.667s-42.667 19.103-42.667 42.667v0 213.333z" />
<glyph unicode="&#xe919;" glyph-name="bin" d="M850.517 577.621l-35.392-495.403c-4.117-57.6-53.333-103.552-110.933-103.552h-384.405c-57.707 0-106.816 45.803-110.933 103.552l-35.371 495.403c-50.377 9.192-88.076 52.706-88.149 105.038v42.675c0.038 57.904 46.181 105.018 103.703 106.621l0.148 0.003 138.005 17.28c15.918 40.19 54.446 68.096 99.493 68.096 0.017 0 0.034 0 0.051 0h170.536c45.050-0.030 83.576-27.933 99.267-67.395l0.253-0.722 138.027-17.259c57.65-1.651 103.766-48.738 103.851-106.616v-42.675c-0.028-52.356-37.75-95.894-87.497-104.947l-0.652-0.098zM259.157 576l34.837-487.701c0.939-13.141 12.907-24.299 25.813-24.299h384.405c12.8 0 24.896 11.307 25.813 24.299l34.816 487.701h-505.685zM576.149 451.541c1.675 22.183 20.086 39.548 42.553 39.548 23.564 0 42.667-19.103 42.667-42.667 0-1.396-0.067-2.776-0.198-4.137l0.013 0.173-21.333-256c-1.675-22.183-20.086-39.548-42.553-39.548-23.564 0-42.667 19.103-42.667 42.667 0 1.396 0.067 2.776 0.198 4.137l-0.013-0.173 21.333 256zM362.816 444.459c-0.118 1.188-0.185 2.568-0.185 3.964 0 23.564 19.103 42.667 42.667 42.667 22.467 0 40.878-17.364 42.544-39.405l0.009-0.143 21.333-256c0.118-1.188 0.185-2.568 0.185-3.964 0-23.564-19.103-42.667-42.667-42.667-22.467 0-40.878 17.364-42.544 39.405l-0.009 0.143-21.333 256zM192.149 746.667c-11.883 0-21.483-9.579-21.483-21.333v-42.667c0-11.691 9.643-21.333 21.483-21.333h639.701c11.883 0 21.483 9.579 21.483 21.333v42.667c0 11.691-9.643 21.333-21.483 21.333-0.028 0-0.062 0-0.095 0-1.839 0-3.65 0.116-5.428 0.342l0.211-0.022-170.496 21.333c-21.178 2.722-37.376 20.638-37.376 42.337 0 0.003 0 0.007 0 0.010v-0.001c0 11.712-9.621 21.333-21.397 21.333h-170.539c-0.019 0-0.041 0-0.064 0-11.782 0-21.333-9.551-21.333-21.333 0 0 0 0 0 0v0c0-0.003 0-0.006 0-0.009 0-21.699-16.198-39.615-37.163-42.315l-0.213-0.022-170.496-21.333c-1.566-0.204-3.378-0.32-5.217-0.32-0.034 0-0.067 0-0.101 0h0.005z" />
<glyph unicode="&#xe91a;" glyph-name="board" d="M410.368 149.333l-73.536-147.072c-7.213-13.937-21.521-23.297-38.017-23.297-23.564 0-42.667 19.103-42.667 42.667 0 6.835 1.607 13.295 4.464 19.022l-0.112-0.247 54.464 108.928h-229.632c-23.564 0-42.667 19.103-42.667 42.667v0 597.333c0 23.564 19.103 42.667 42.667 42.667v0h384v42.667c0 23.564 19.103 42.667 42.667 42.667s42.667-19.103 42.667-42.667v0-42.667h384c23.564 0 42.667-19.103 42.667-42.667v0-597.333c0-23.564-19.103-42.667-42.667-42.667v0h-229.632l54.464-108.928c2.745-5.48 4.353-11.939 4.353-18.775 0-23.564-19.103-42.667-42.667-42.667-16.495 0-30.804 9.361-37.905 23.060l-0.112 0.238-73.536 147.072h-203.264zM383.147 234.667h512.853v512h-768v-512h255.147z" />
<glyph unicode="&#xe91b;" glyph-name="boat" d="M170.667 511.851v234.816c0 23.564 19.103 42.667 42.667 42.667v0h170.667v85.333c0 23.564 19.103 42.667 42.667 42.667v0h170.667c23.564 0 42.667-19.103 42.667-42.667v0-85.333h170.667c23.564 0 42.667-19.103 42.667-42.667v0-234.816l102.827-46.293c14.957-6.849 25.16-21.688 25.16-38.91 0-5.913-1.203-11.546-3.377-16.666l0.105 0.279-106.667-256c-6.603-15.547-21.743-26.252-39.383-26.252-8.817 0-17.009 2.674-23.809 7.256l0.152-0.097c-2.072 1.341-4.722 2.898-7.431 4.36l-0.676 0.333c-7.208 4.031-16.010 8.234-25.078 11.921l-1.674 0.602c-28.587 11.435-59.371 18.283-90.816 18.283-29.376 0-48.427-4.971-77.931-17.792 4.843 2.091-15.211-6.699-20.181-8.747-25.92-10.837-46.933-16.128-72.555-16.128-26.197 0-48.427 5.483-76.885 16.747-2.987 1.173-6.059 2.411-9.792 3.947l-9.323 3.861c-32.32 13.333-50.069 18.112-74.667 18.112-26.731 0-56.917-6.891-87.467-18.539-10.987-4.181-21.184-8.661-30.272-13.12-4.714-2.248-8.133-4.041-11.495-5.923l1.063 0.547c-6.079-3.533-13.377-5.618-21.163-5.618-17.638 0-32.777 10.703-39.275 25.969l-0.106 0.279-106.667 256c-2.076 4.848-3.283 10.489-3.283 16.412 0 17.218 10.198 32.053 24.884 38.796l0.266 0.109 102.848 46.293zM256 550.251l238.507 107.307c5.141 2.369 11.156 3.751 17.493 3.751s12.352-1.382 17.759-3.86l-0.266 0.109 238.507-107.285v153.728h-512v-153.749zM469.333 832v-42.667h85.333v42.667h-85.333zM214.229 228.245c2.987 1.195 6.080 2.411 9.259 3.627 39.445 15.019 79.232 24.128 117.845 24.128 38.229 0 65.451-7.339 107.2-24.555l9.28-3.84c3.413-1.387 6.101-2.496 8.661-3.499 19.349-7.659 31.979-10.773 45.525-10.773 12.629 0 23.296 2.688 39.68 9.536 2.603 1.067 5.333 2.24 9.024 3.861l10.027 4.395c39.275 17.088 69.099 24.875 111.936 24.875 43.221 0 84.459-9.173 122.517-24.384l5.12-2.091 73.024 175.253-371.328 167.104-371.328-167.104 73.557-176.533zM54.827 34.176c-7.755 7.727-12.553 18.416-12.553 30.226 0 23.564 19.103 42.667 42.667 42.667 12.15 0 23.113-5.078 30.884-13.228l0.016-0.017c2.667-2.731 9.536-8.32 19.733-14.165 17.109-9.835 36.053-15.659 56.427-15.659 15.467 0 22.869 2.453 38.4 11.392l7.36 4.267c32.384 18.624 59.477 27.008 103.573 27.008 43.221 0 66.987-7.125 104.405-25.835 26.603-13.291 38.379-16.832 66.261-16.832s39.68 3.541 66.261 16.832c37.397 18.709 61.184 25.835 104.405 25.835 43.968 0 72.043-8.448 104.875-26.731l10.197-5.739c14.165-7.872 21.376-10.197 34.261-10.197 18.24 0 37.077 5.867 55.125 15.936 11.157 6.208 19.157 12.267 22.699 15.488 7.461 6.547 17.303 10.541 28.078 10.541 23.564 0 42.667-19.103 42.667-42.667 0-12.059-5.003-22.95-13.047-30.71l-0.013-0.012c-8.085-7.445-21.269-17.387-38.827-27.179-29.824-16.597-62.293-26.731-96.683-26.731-29.44 0-49.92 6.613-75.691 20.928l-10.304 5.803c-20.928 11.648-35.179 15.936-63.339 15.936-27.883 0-39.68-3.541-66.261-16.832-37.397-18.709-61.184-25.835-104.405-25.835s-66.987 7.125-104.405 25.835c-26.603 13.291-38.379 16.832-66.261 16.832-27.861 0-40.747-3.989-61.013-15.659l-7.36-4.245c-27.371-15.765-48.469-22.763-80.96-22.763-36.48 0-69.717 10.176-98.987 27.008-17.621 10.155-30.421 20.565-38.187 28.501z" />
<glyph unicode="&#xe91c;" glyph-name="book-1" d="M512 769.643l332.651 99.755c72.405 21.717 136.683-25.963 136.683-101.611v-490.517c0-66.005-48.96-131.712-112.171-150.677l-343.637-103.040c-4.034-1.413-8.684-2.23-13.525-2.23s-9.492 0.816-13.821 2.319l-343.341 102.951c-63.211 18.944-112.171 84.651-112.171 150.656v490.517c0 75.669 64.277 123.349 136.683 101.632l332.651-99.755zM154.837 787.669c-17.707 5.312-26.837-1.451-26.837-19.904v-490.517c0-28.309 24.213-60.8 51.349-68.949l289.984-86.955v571.989l-314.496 94.336zM844.651 208.299c27.136 8.149 51.349 40.661 51.349 68.949v490.517c0 18.453-9.131 25.216-26.837 19.904l-314.496-94.315v-572.011l289.984 86.955z" />
<glyph unicode="&#xe91d;" glyph-name="book-2" d="M298.667 832h-64.085c-11.738-0.012-21.249-9.53-21.249-21.269 0-0.075 0-0.15 0.001-0.225v0.011-725.035c0-11.947 9.515-21.483 21.248-21.483h490.752c47.128 0 85.333 38.205 85.333 85.333v0 597.333c0 47.128-38.205 85.333-85.333 85.333v0h-128v-384c0-33.173-36.181-53.653-64.619-36.587l-84.715 50.837-84.715-50.837c-28.437-17.067-64.619 3.413-64.619 36.587v384zM128 810.517c0 0.063 0 0.138 0 0.213 0 58.868 47.716 106.591 106.58 106.603h490.753c94.257 0 170.667-76.41 170.667-170.667v0-597.333c0-94.257-76.41-170.667-170.667-170.667v0h-490.752c-58.871 0.036-106.581 47.769-106.581 106.645 0 0.060 0 0.12 0 0.18v-0.009 725.035zM384 523.371l42.048 25.216c6.266 3.819 13.845 6.080 21.952 6.080s15.686-2.261 22.141-6.187l-0.189 0.107 42.048-25.237v308.651h-128v-308.651z" />
<glyph unicode="&#xe91e;" glyph-name="bookmark-1" d="M453.547 188.032c33.749 20.544 83.2 20.523 116.907 0l176.213-107.349v729.835c0 11.904-9.6 21.483-21.504 21.483h-426.325c-11.925 0-21.504-9.6-21.504-21.483v-729.835l176.213 107.349zM192 46.912v763.605c0 0.013 0 0.028 0 0.043 0 58.969 47.804 106.773 106.773 106.773 0.023 0 0.045 0 0.068 0h426.322c0.019 0 0.042 0 0.064 0 58.969 0 106.773-47.804 106.773-106.773 0-0.015 0-0.030 0-0.045v0.003-763.584c0-56.747-52.651-86.059-101.12-56.533l-204.821 124.757c-6.443 3.925-21.653 3.947-28.117 0l-204.821-124.757c-48.341-29.44-101.12-0.256-101.12 56.533z" />
<glyph unicode="&#xe91f;" glyph-name="bookmark-add" d="M453.547 188.032c33.749 20.544 83.2 20.523 116.907 0l176.213-107.349v729.835c0 11.904-9.6 21.483-21.504 21.483h-426.325c-11.925 0-21.504-9.6-21.504-21.483v-729.835l176.213 107.349zM192 46.912v763.605c0 0.013 0 0.028 0 0.043 0 58.969 47.804 106.773 106.773 106.773 0.023 0 0.045 0 0.068 0h426.322c0.019 0 0.042 0 0.064 0 58.969 0 106.773-47.804 106.773-106.773 0-0.015 0-0.030 0-0.045v0.003-763.584c0-56.747-52.651-86.059-101.12-56.533l-204.821 124.757c-6.443 3.925-21.653 3.947-28.117 0l-204.821-124.757c-48.341-29.44-101.12-0.256-101.12 56.533zM554.667 533.333v64c0 23.564-19.103 42.667-42.667 42.667s-42.667-19.103-42.667-42.667v0-64h-64c-23.564 0-42.667-19.103-42.667-42.667s19.103-42.667 42.667-42.667v0h64v-64c0-23.564 19.103-42.667 42.667-42.667s42.667 19.103 42.667 42.667v0 64h64c23.564 0 42.667 19.103 42.667 42.667s-19.103 42.667-42.667 42.667v0h-64z" />
<glyph unicode="&#xe920;" glyph-name="bookmark-added" d="M192 46.912v763.605c0 0.013 0 0.028 0 0.043 0 58.969 47.804 106.773 106.773 106.773 0.023 0 0.045 0 0.068 0h426.322c0.019 0 0.042 0 0.064 0 58.969 0 106.773-47.804 106.773-106.773 0-0.015 0-0.030 0-0.045v0.003-763.584c0-56.747-52.651-86.059-101.12-56.533l-204.821 124.757c-6.443 3.925-21.653 3.947-28.117 0l-204.821-124.757c-48.341-29.44-101.12-0.256-101.12 56.533zM453.547 188.032c33.749 20.544 83.2 20.523 116.907 0l176.213-107.349v729.835c0 11.904-9.6 21.483-21.504 21.483h-426.325c-11.925 0-21.504-9.6-21.504-21.483v-729.835l176.213 107.349zM435.499 542.165l55.168-55.168 119.168 119.168c7.665 7.41 18.12 11.977 29.641 11.977 23.564 0 42.667-19.103 42.667-42.667 0-11.521-4.567-21.976-11.989-29.653l-149.321-149.321c-8.32-8.32-19.243-12.501-30.165-12.501-0.013 0-0.028 0-0.044 0-11.768 0-22.419 4.778-30.12 12.5l-85.334 85.334c-7.41 7.665-11.977 18.12-11.977 29.641 0 23.564 19.103 42.667 42.667 42.667 11.521 0 21.976-4.567 29.653-11.989l-0.012 0.012z" />
<glyph unicode="&#xe921;" glyph-name="bowtie" d="M399.147 603.371c31.131 22.889 70.222 36.63 112.523 36.63 0.116 0 0.232 0 0.348 0h-0.018c0.098 0 0.214 0 0.33 0 42.301 0 81.393-13.741 113.055-37.002l-0.532 0.373 176.256 104.811 3.605 1.92c92.16 43.499 176.619-10.176 176.619-112.213v-299.733c0-102.101-84.352-155.776-176.64-112.213l-3.584 1.92-176.277 104.789c-31.137-22.902-70.239-36.651-112.553-36.651-0.098 0-0.197 0-0.295 0h0.015c-0.089 0-0.195 0-0.301 0-42.314 0-81.416 13.749-113.084 37.023l0.531-0.372-176.256-104.811-3.605-1.92c-92.267-43.499-176.619 10.133-176.619 112.256v299.733c0 102.037 84.48 155.712 176.64 112.213l3.584-1.92 176.277-104.811zM342.293 537.877l-161.131 95.829c-34.432 15.573-53.163 3.051-53.163-35.84v-299.712c0-38.955 18.667-51.456 53.163-35.84l161.131 95.787c-14.041 25.948-22.294 56.803-22.294 89.586 0 0.11 0 0.22 0 0.33v-0.017c0 0.093 0 0.203 0 0.312 0 32.783 8.253 63.638 22.794 90.601l-0.501-1.015zM681.707 358.123l161.131-95.787c34.496-15.637 53.163-3.136 53.163 35.84v299.669c0 38.891-18.731 51.413-53.163 35.84l-161.131-95.808c14.041-25.948 22.294-56.803 22.294-89.586 0-0.102 0-0.205 0-0.307v0.016c0-0.086 0-0.189 0-0.291 0-32.783-8.253-63.638-22.794-90.601l0.501 1.015zM512 341.333c58.91 0 106.667 47.756 106.667 106.667s-47.756 106.667-106.667 106.667v0c-58.91 0-106.667-47.756-106.667-106.667s47.756-106.667 106.667-106.667v0z" />
<glyph unicode="&#xe922;" glyph-name="box-1" d="M362.667 832h-213.184c-11.904 0-21.483-9.579-21.483-21.483v-725.035c0-11.904 9.579-21.483 21.483-21.483h725.035c11.904 0 21.483 9.579 21.483 21.483v725.035c0 11.904-9.579 21.483-21.483 21.483h-213.184v-256c0-23.564-19.103-42.667-42.667-42.667v0h-213.333c-23.564 0-42.667 19.103-42.667 42.667v0 256zM42.667 810.517c0 0.019 0 0.041 0 0.064 0 58.958 47.794 106.752 106.752 106.752 0.022 0 0.045 0 0.067 0h725.031c0.019 0 0.041 0 0.064 0 58.958 0 106.752-47.794 106.752-106.752 0-0.022 0-0.045 0-0.067v0.003-725.035c0-0.019 0-0.041 0-0.064 0-58.958-47.794-106.752-106.752-106.752-0.022 0-0.045 0-0.067 0h-725.031c-0.019 0-0.041 0-0.064 0-58.958 0-106.752 47.794-106.752 106.752 0 0.022 0 0.045 0 0.067v-0.003 725.035zM448 618.667h128v213.333h-128v-213.333zM746.667 259.669v-110.336c0-23.564-19.103-42.667-42.667-42.667s-42.667 19.103-42.667 42.667v0 110.336l-33.835-33.835c-7.665-7.41-18.12-11.977-29.641-11.977-23.564 0-42.667 19.103-42.667 42.667 0 11.521 4.567 21.976 11.989 29.653l106.655 106.655c7.721 7.718 18.386 12.492 30.165 12.492s22.445-4.774 30.165-12.492l106.667-106.667c7.41-7.665 11.977-18.12 11.977-29.641 0-23.564-19.103-42.667-42.667-42.667-11.521 0-21.976 4.567-29.653 11.989l-33.823 33.823z" />
<glyph unicode="&#xe923;" glyph-name="box-2" d="M42.667 234.667v426.667c0 15.147 7.872 30.293 23.595 38.165l426.667 213.333c5.557 2.837 12.12 4.5 19.072 4.5s13.515-1.663 19.314-4.612l-0.242 0.112 426.667-213.333c14.088-7.027 23.596-21.335 23.596-37.863 0-0.106 0-0.213-0.001-0.319v0.016-426.667c-0.001-16.612-9.494-31.006-23.352-38.053l-0.243-0.112-426.24-213.12c-5.517-2.891-12.035-4.636-18.948-4.757l-0.039-0.001c-0.125-0.001-0.274-0.002-0.422-0.002-7.148 0-13.885 1.76-19.801 4.871l0.233-0.112-426.261 213.099c-14.101 7.16-23.595 21.554-23.595 38.167 0 0.007 0 0.014 0 0.021v-0.001zM128 261.035l341.333-170.667v331.264l-341.333 170.667v-331.264zM554.667 421.632v-331.264l341.333 170.667v331.264l-341.333-170.667zM180.736 661.333l331.264-165.632 331.264 165.632-331.264 165.632-331.264-165.632z" />
<glyph unicode="&#xe924;" glyph-name="box-3" d="M279.147 805.931l0.832 0.427 212.949 106.453c5.557 2.837 12.12 4.5 19.072 4.5s13.515-1.663 19.314-4.612l-0.242 0.112 426.667-213.333c14.088-7.027 23.596-21.335 23.596-37.863 0-0.099 0-0.198-0.001-0.296v0.015-426.667c-0.001-16.612-9.494-31.006-23.352-38.053l-0.243-0.112-426.24-213.12c-5.517-2.891-12.035-4.636-18.948-4.757l-0.039-0.001c-0.125-0.001-0.274-0.002-0.422-0.002-7.148 0-13.885 1.76-19.801 4.871l0.233-0.112-426.261 213.099c-14.101 7.16-23.595 21.554-23.595 38.167 0 0.007 0 0.014 0 0.021v-0.001 426.667c0 15.147 7.872 30.293 23.595 38.165l212.885 106.453zM682.667 485.632l-128-64v-331.264l341.333 170.667v331.264l-128-64v-144.299c0-23.564-19.103-42.667-42.667-42.667s-42.667 19.103-42.667 42.667v0 101.632zM298.667 720.299l-117.931-58.965 331.264-165.632 117.931 58.965-331.264 165.632zM394.069 768l331.264-165.632 117.931 58.965-331.264 165.632-117.931-58.965zM128 261.035l341.333-170.667v331.264l-341.333 170.667v-331.264z" />
<glyph unicode="&#xe925;" glyph-name="box-4" d="M564.011 661.333l-42.667 170.667h-18.688l-42.667-170.667h104.021zM576 576h-128v-85.333h128v85.333zM362.667 576h-234.667v-490.752c0-11.584 9.664-21.248 21.483-21.248h725.035c0.044 0 0.097-0.001 0.15-0.001 11.752 0 21.285 9.503 21.333 21.244v490.757h-234.667v-128c0-23.564-19.103-42.667-42.667-42.667v0h-213.333c-23.564 0-42.667 19.103-42.667 42.667v0 128zM414.677 832h-155.52l-99.541-170.667h212.395l42.667 170.667zM609.323 832l42.667-170.667h212.395l-99.584 170.667h-155.52zM975.147 640.789c3.925-6.443 6.187-14.016 6.187-22.123v-533.419c-0.049-58.874-47.786-106.581-106.667-106.581-0.053 0-0.105 0-0.158 0h-725.027c-58.923 0-106.816 47.829-106.816 106.581v533.419c0 8.107 2.261 15.68 6.187 22.123l148.949 255.36c7.534 12.759 21.215 21.184 36.864 21.184 0 0 0 0 0 0h554.667c0.004 0 0.008 0 0.013 0 15.64 0 29.315-8.415 36.743-20.965l0.108-0.198 148.949-255.36z" />
<glyph unicode="&#xe926;" glyph-name="brief-bag" d="M640 320v-42.667c0-23.564-19.103-42.667-42.667-42.667v0h-170.667c-23.564 0-42.667 19.103-42.667 42.667v0 42.667h-213.333v-234.859c0-11.584 9.6-21.141 21.483-21.141h639.701c0.051 0 0.111-0.001 0.171-0.001 11.711 0 21.215 9.445 21.311 21.133v234.868h-213.333zM640 405.333h234.517c11.904 0 21.483 9.6 21.483 21.547v212.907c0 12.032-9.515 21.547-21.483 21.547h-725.035c-11.904 0-21.483-9.6-21.483-21.547v-212.907c0-12.032 9.515-21.547 21.483-21.547h234.517v42.667c0 23.564 19.103 42.667 42.667 42.667v0h170.667c23.564 0 42.667-19.103 42.667-42.667v0-42.667zM256 746.667v63.957c0 0.013 0 0.028 0 0.043 0 58.865 47.683 106.594 106.532 106.667h298.93c58.842-0.012 106.539-47.716 106.539-106.56 0-0.053 0-0.105 0-0.157v0.008-63.957h106.517c0.038 0 0.083 0 0.128 0 58.922 0 106.688-47.766 106.688-106.688 0-0.068 0-0.135 0-0.203v0.011-212.907c0-0.044 0-0.097 0-0.149 0-34.783-16.642-65.68-42.399-85.161l-0.268-0.194v-256.213c0-58.901-47.872-106.496-106.816-106.496h-639.701c-58.923 0-106.816 47.659-106.816 106.475v256.213c-26.023 19.658-42.667 50.542-42.667 85.312 0 0.067 0 0.135 0 0.202v-0.010 212.949c0 0.019 0 0.042 0 0.064 0 58.981 47.814 106.795 106.795 106.795 0.008 0 0.015 0 0.023 0h106.516zM682.667 810.624c0 0.044 0.001 0.097 0.001 0.149 0 11.716-9.492 21.215-21.205 21.227h-298.924c-11.727-0.073-21.205-9.596-21.205-21.333 0-0.015 0-0.030 0-0.045v0.002-63.957h341.333v63.957zM469.333 320h85.333v85.333h-85.333v-85.333z" />
<glyph unicode="&#xe927;" glyph-name="browser" d="M896 704v106.517c0 11.904-9.579 21.483-21.483 21.483h-725.035c-11.904 0-21.483-9.579-21.483-21.483v-106.517h768zM896 618.667h-768v-533.184c0-11.904 9.579-21.483 21.483-21.483h725.035c11.904 0 21.483 9.579 21.483 21.483v533.184zM42.667 810.517c0 0.019 0 0.041 0 0.064 0 58.958 47.794 106.752 106.752 106.752 0.022 0 0.045 0 0.067 0h725.031c0.019 0 0.041 0 0.064 0 58.958 0 106.752-47.794 106.752-106.752 0-0.022 0-0.045 0-0.067v0.003-725.035c0-0.019 0-0.041 0-0.064 0-58.958-47.794-106.752-106.752-106.752-0.022 0-0.045 0-0.067 0h-725.031c-0.019 0-0.041 0-0.064 0-58.958 0-106.752 47.794-106.752 106.752 0 0.022 0 0.045 0 0.067v-0.003 725.035zM192 725.333c-23.564 0-42.667 19.103-42.667 42.667s19.103 42.667 42.667 42.667v0c23.564 0 42.667-19.103 42.667-42.667s-19.103-42.667-42.667-42.667v0zM298.667 725.333c-23.564 0-42.667 19.103-42.667 42.667s19.103 42.667 42.667 42.667v0c23.564 0 42.667-19.103 42.667-42.667s-19.103-42.667-42.667-42.667v0zM405.333 725.333c-23.564 0-42.667 19.103-42.667 42.667s19.103 42.667 42.667 42.667v0c23.564 0 42.667-19.103 42.667-42.667s-19.103-42.667-42.667-42.667v0z" />
<glyph unicode="&#xe928;" glyph-name="bubble-1" d="M149.483 192c-58.923 0-106.816 47.829-106.816 106.581v469.504c0.049 58.874 47.786 106.581 106.667 106.581 0.053 0 0.105 0 0.158 0h725.027c58.923 0 106.816-47.829 106.816-106.581v-469.504c0-58.863-47.718-106.581-106.581-106.581-0.045 0-0.090 0-0.135 0h-63.95v-128c0-36.821-43.499-56.341-71.019-31.893l-179.861 159.893h-410.304zM725.333 234.667c0 23.564 19.103 42.667 42.667 42.667v0h106.624c0.038 0 0.083 0 0.128 0 11.735 0 21.248 9.513 21.248 21.248 0 0 0 0 0 0v0 469.504c0 11.584-9.664 21.248-21.483 21.248h-725.035c-0.044 0-0.097 0.001-0.15 0.001-11.752 0-21.285-9.503-21.333-21.244v-469.509c0-11.584 9.664-21.248 21.483-21.248h426.517c0.003 0 0.007 0 0.010 0 10.899 0 20.843-4.086 28.384-10.81l-0.042 0.037 120.981-107.541v75.648zM320 469.333c-35.346 0-64 28.654-64 64s28.654 64 64 64v0c35.346 0 64-28.654 64-64s-28.654-64-64-64v0zM512 469.333c-35.346 0-64 28.654-64 64s28.654 64 64 64v0c35.346 0 64-28.654 64-64s-28.654-64-64-64v0zM704 469.333c-35.346 0-64 28.654-64 64s28.654 64 64 64v0c35.346 0 64-28.654 64-64s-28.654-64-64-64v0z" />
<glyph unicode="&#xe929;" glyph-name="bubble-2" d="M149.483 192c-58.923 0-106.816 47.829-106.816 106.581v469.504c0.049 58.874 47.786 106.581 106.667 106.581 0.053 0 0.105 0 0.158 0h725.027c58.923 0 106.816-47.829 106.816-106.581v-469.504c0-58.863-47.718-106.581-106.581-106.581-0.045 0-0.090 0-0.135 0h-63.95v-128c0-36.821-43.499-56.341-71.019-31.893l-179.861 159.893h-410.304zM725.333 234.667c0 23.564 19.103 42.667 42.667 42.667v0h106.624c0.038 0 0.083 0 0.128 0 11.735 0 21.248 9.513 21.248 21.248 0 0 0 0 0 0v0 469.504c0 11.584-9.664 21.248-21.483 21.248h-725.035c-0.044 0-0.097 0.001-0.15 0.001-11.752 0-21.285-9.503-21.333-21.244v-469.509c0-11.584 9.664-21.248 21.483-21.248h426.517c0.003 0 0.007 0 0.010 0 10.899 0 20.843-4.086 28.384-10.81l-0.042 0.037 120.981-107.541v75.648zM320 576c-23.564 0-42.667 19.103-42.667 42.667s19.103 42.667 42.667 42.667v0h384c23.564 0 42.667-19.103 42.667-42.667s-19.103-42.667-42.667-42.667v0h-384zM320 405.333c-23.564 0-42.667 19.103-42.667 42.667s19.103 42.667 42.667 42.667v0h256c23.564 0 42.667-19.103 42.667-42.667s-19.103-42.667-42.667-42.667v0h-256z" />
<glyph unicode="&#xe92a;" glyph-name="bubble-rounded-1" d="M964.544 93.717c16.384-65.493-32.939-114.603-98.261-98.261l-139.861 34.965c-62.122-32.616-135.725-51.755-213.799-51.755-0.219 0-0.438 0-0.657 0h0.034c-259.2 0-469.333 210.133-469.333 469.333s210.133 469.333 469.333 469.333 469.333-210.133 469.333-469.333c0-75.627-17.92-148.715-51.755-214.421l34.987-139.861zM842.795 228.885c-0.808 3.105-1.273 6.67-1.273 10.343 0 7.684 2.031 14.893 5.585 21.12l-0.11-0.21c30.826 53.87 49.003 118.406 49.003 187.186 0 0.237 0 0.475-0.001 0.712v-0.037c0 212.075-171.925 384-384 384s-384-171.925-384-384 171.925-384 384-384c66.773 0 130.987 17.024 187.861 49.003 6.018 3.444 13.227 5.475 20.91 5.475 3.673 0 7.238-0.464 10.639-1.337l-0.296 0.064 148.907-37.227-37.227 148.907zM320 384c-35.346 0-64 28.654-64 64s28.654 64 64 64v0c35.346 0 64-28.654 64-64s-28.654-64-64-64v0zM512 384c-35.346 0-64 28.654-64 64s28.654 64 64 64v0c35.346 0 64-28.654 64-64s-28.654-64-64-64v0zM704 384c-35.346 0-64 28.654-64 64s28.654 64 64 64v0c35.346 0 64-28.654 64-64s-28.654-64-64-64v0z" />
<glyph unicode="&#xe92b;" glyph-name="bubble-rounded-2" d="M964.544 93.717c16.384-65.493-32.939-114.603-98.261-98.261l-139.861 34.965c-62.122-32.616-135.725-51.755-213.799-51.755-0.219 0-0.438 0-0.657 0h0.034c-259.2 0-469.333 210.133-469.333 469.333s210.133 469.333 469.333 469.333 469.333-210.133 469.333-469.333c0-75.627-17.92-148.715-51.755-214.421l34.987-139.861zM842.795 228.885c-0.808 3.105-1.273 6.67-1.273 10.343 0 7.684 2.031 14.893 5.585 21.12l-0.11-0.21c30.826 53.87 49.003 118.406 49.003 187.186 0 0.237 0 0.475-0.001 0.712v-0.037c0 212.075-171.925 384-384 384s-384-171.925-384-384 171.925-384 384-384c66.773 0 130.987 17.024 187.861 49.003 6.018 3.444 13.227 5.475 20.91 5.475 3.673 0 7.238-0.464 10.639-1.337l-0.296 0.064 148.907-37.227-37.227 148.907zM320 490.667c-23.564 0-42.667 19.103-42.667 42.667s19.103 42.667 42.667 42.667v0h384c23.564 0 42.667-19.103 42.667-42.667s-19.103-42.667-42.667-42.667v0h-384zM320 320c-23.564 0-42.667 19.103-42.667 42.667s19.103 42.667 42.667 42.667v0h256c23.564 0 42.667-19.103 42.667-42.667s-19.103-42.667-42.667-42.667v0h-256z" />
<glyph unicode="&#xe92c;" glyph-name="bubble-rounded-chat" d="M435.136 67.819c-15.35-2.589-33.034-4.069-51.064-4.069-43.615 0-85.207 8.659-123.151 24.352l2.141-0.784-120.32-39.339c-66.901-21.867-116.608 27.947-94.763 94.741l39.339 120.341c-14.925 35.631-23.595 77.038-23.595 120.469 0 0.12 0 0.24 0 0.36v-0.019c0 123.093 69.504 229.995 171.413 283.563 72.149 111.851 197.867 185.899 340.864 185.899 223.851 0 405.333-181.483 405.333-405.333 0-64.469-15.104-126.848-43.584-183.040l26.837-107.349c16.341-65.429-32.853-114.517-98.197-98.197l-107.349 26.837c-53.099-27.474-115.908-43.584-182.48-43.584-0.197 0-0.393 0-0.59 0h0.030c-0.135 0-0.295 0-0.456 0-50.416 0-98.679 9.224-143.191 26.077l2.782-0.924zM576.299 128c0.082 0 0.18 0 0.278 0 57.31 0 111.082 15.146 157.532 41.654l-1.564-0.822c6.018 3.444 13.227 5.475 20.91 5.475 3.673 0 7.238-0.464 10.639-1.337l-0.296 0.064 116.224-29.056-29.056 116.224c-0.808 3.105-1.273 6.67-1.273 10.343 0 7.684 2.031 14.893 5.585 21.12l-0.11-0.21c25.686 44.888 40.833 98.662 40.833 155.974 0 0.2 0 0.401-0.001 0.601v-0.031c0 176.725-143.275 320-320 320-0.146 0-0.318 0-0.491 0-72.247 0-138.877-24.048-192.323-64.576l0.792 0.576c176.747-0.064 320.021-143.36 320.021-320.128 0-104.576-50.133-197.44-127.701-255.872zM252.032 173.483c3.96 1.34 8.522 2.114 13.264 2.114 6.629 0 12.904-1.512 18.501-4.209l-0.255 0.111c29.255-14.165 63.627-22.443 99.932-22.443 0.14 0 0.28 0 0.42 0h-0.021c129.664 0 234.795 105.131 234.795 234.816 0 129.664-105.131 234.795-234.795 234.795-129.685 0-234.816-105.131-234.816-234.795 0-35.221 7.744-69.248 22.443-100.331 2.586-5.341 4.098-11.617 4.098-18.246 0-4.742-0.774-9.303-2.201-13.565l0.087 0.301-38.144-116.693 116.693 38.144z" />
<glyph unicode="&#xe92d;" glyph-name="bubbles-chat" d="M213.333 725.333v85.333c0 47.147 38.101 85.333 85.376 85.333h597.248c47.122-0.036 85.315-38.214 85.376-85.328v-405.339c0-47.083-38.229-85.333-85.291-85.333h-42.709v-149.333c0-38.016-45.952-57.045-72.832-30.165l-51.584 51.563c-0.995-0.041-2.162-0.064-3.335-0.064-0.088 0-0.175 0-0.263 0h-302.322l-179.499-179.499c-26.88-26.88-72.832-7.851-72.832 30.165v149.333h-42.709c-47.077 0.012-85.242 38.154-85.291 85.222v362.885c0 46.933 38.293 85.227 85.376 85.227h85.291zM768 362.667c0 23.564 19.103 42.667 42.667 42.667v0h85.376c-0.085 0-0.043 405.333-0.043 405.333h-597.291l-0.043-405.333h320c11.781-0.003 22.446-4.78 30.165-12.501l119.168-119.168v89.003zM213.333 640h-85.291l-0.043-362.667h85.333c23.564 0 42.667-19.103 42.667-42.667v0-89.003l119.168 119.168c7.719 7.722 18.384 12.499 30.165 12.501h238.337l-42.667 42.667h-302.336c-47.104 0-85.333 38.315-85.333 85.333v234.667z" />
<glyph unicode="&#xe92e;" glyph-name="bus" d="M704 64h-384v-21.291c-0.012-35.35-28.653-64.006-63.997-64.043h-0.003c-35.349 0-64 28.565-64 64.043v27.52c-62.206 19.025-106.667 75.93-106.667 143.22 0 0.004 0 0.009 0 0.013v-0.001 554.411c0 0.013 0 0.028 0 0.043 0 82.522 66.897 149.419 149.419 149.419 0.015 0 0.030 0 0.045 0h554.409c0.013 0 0.028 0 0.043 0 82.522 0 149.419-66.897 149.419-149.419 0-0.015 0-0.030 0-0.045v0.002-554.411c0-0.010 0-0.022 0-0.034 0-67.289-44.461-124.194-105.608-142.94l-1.059-0.279v-27.52c-0.024-35.341-28.661-63.985-63.996-64.021h-0.004c-35.349 0-64 28.565-64 64.043v21.291zM469.333 832h-234.539c-0.057 0-0.125 0-0.192 0-35.273 0-63.875-28.565-63.936-63.824v-256.347c0.048-35.263 28.645-63.83 63.915-63.83 0.075 0 0.15 0 0.225 0h234.527v384zM554.667 832v-384h234.539c0.057 0 0.125 0 0.192 0 35.273 0 63.875 28.565 63.936 63.824v256.347c-0.048 35.263-28.645 63.83-63.915 63.83-0.075 0-0.15 0-0.225 0h-234.527zM853.333 377.045c-19.413-9.216-41.173-14.379-64.128-14.379h-554.411c-0.064 0-0.14 0-0.217 0-23.222 0-45.205 5.304-64.803 14.767l0.892-0.388v-163.584c0-0.013 0-0.028 0-0.043 0-35.393 28.692-64.085 64.085-64.085 0.015 0 0.030 0 0.045 0h554.408c0.013 0 0.028 0 0.043 0 35.393 0 64.085 28.692 64.085 64.085 0 0.015 0 0.030 0 0.045v-0.002 163.584zM277.333 192c-35.346 0-64 28.654-64 64s28.654 64 64 64v0c35.346 0 64-28.654 64-64s-28.654-64-64-64v0zM746.667 192c-35.346 0-64 28.654-64 64s28.654 64 64 64v0c35.346 0 64-28.654 64-64s-28.654-64-64-64v0z" />
<glyph unicode="&#xe92f;" glyph-name="calculator-1" d="M330.667 326.997l44.501 44.501c7.665 7.41 18.12 11.977 29.641 11.977 23.564 0 42.667-19.103 42.667-42.667 0-11.521-4.567-21.976-11.989-29.653l-44.489-44.489 44.501-44.501c7.41-7.665 11.977-18.12 11.977-29.641 0-23.564-19.103-42.667-42.667-42.667-11.521 0-21.976 4.567-29.653 11.989l-44.489 44.489-44.501-44.501c-7.665-7.41-18.12-11.977-29.641-11.977-23.564 0-42.667 19.103-42.667 42.667 0 11.521 4.567 21.976 11.989 29.653l44.489 44.489-44.501 44.501c-7.41 7.665-11.977 18.12-11.977 29.641 0 23.564 19.103 42.667 42.667 42.667 11.521 0 21.976-4.567 29.653-11.989l44.489-44.489zM362.667 682.667h42.667c23.564 0 42.667-19.103 42.667-42.667s-19.103-42.667-42.667-42.667v0h-42.667v-42.667c0-23.564-19.103-42.667-42.667-42.667s-42.667 19.103-42.667 42.667v0 42.667h-42.667c-23.564 0-42.667 19.103-42.667 42.667s19.103 42.667 42.667 42.667v0h42.667v42.667c0 23.564 19.103 42.667 42.667 42.667s42.667-19.103 42.667-42.667v0-42.667zM42.667 810.517c0 0.019 0 0.041 0 0.064 0 58.958 47.794 106.752 106.752 106.752 0.022 0 0.045 0 0.067 0h725.031c0.019 0 0.041 0 0.064 0 58.958 0 106.752-47.794 106.752-106.752 0-0.022 0-0.045 0-0.067v0.003-725.035c0-0.019 0-0.041 0-0.064 0-58.958-47.794-106.752-106.752-106.752-0.022 0-0.045 0-0.067 0h-725.031c-0.019 0-0.041 0-0.064 0-58.958 0-106.752 47.794-106.752 106.752 0 0.022 0 0.045 0 0.067v-0.003 725.035zM128 810.517v-725.035c0-11.904 9.579-21.483 21.483-21.483h725.035c11.904 0 21.483 9.579 21.483 21.483v725.035c0 11.904-9.579 21.483-21.483 21.483h-725.035c-11.904 0-21.483-9.579-21.483-21.483zM618.667 597.333c-23.564 0-42.667 19.103-42.667 42.667s19.103 42.667 42.667 42.667v0h170.667c23.564 0 42.667-19.103 42.667-42.667s-19.103-42.667-42.667-42.667v0h-170.667zM618.667 298.667c-23.564 0-42.667 19.103-42.667 42.667s19.103 42.667 42.667 42.667v0h170.667c23.564 0 42.667-19.103 42.667-42.667s-19.103-42.667-42.667-42.667v0h-170.667zM618.667 149.333c-23.564 0-42.667 19.103-42.667 42.667s19.103 42.667 42.667 42.667v0h170.667c23.564 0 42.667-19.103 42.667-42.667s-19.103-42.667-42.667-42.667v0h-170.667z" />
<glyph unicode="&#xe930;" glyph-name="calendar-1" d="M746.667 832h127.851c0.006 0 0.014 0 0.021 0 58.981 0 106.795-47.814 106.795-106.795 0-0.008 0-0.015 0-0.023v0.001-639.701c0-0.013 0-0.028 0-0.043 0-58.969-47.804-106.773-106.773-106.773-0.015 0-0.030 0-0.045 0h-725.032c-0.006 0-0.014 0-0.021 0-58.981 0-106.795 47.814-106.795 106.795 0 0.008 0 0.015 0 0.023v-0.001 639.701c0 0.013 0 0.028 0 0.043 0 58.969 47.804 106.773 106.773 106.773 0.015 0 0.030 0 0.045 0h127.848v42.667c0 23.564 19.103 42.667 42.667 42.667s42.667-19.103 42.667-42.667v0-42.667h298.667v42.667c0 23.564 19.103 42.667 42.667 42.667s42.667-19.103 42.667-42.667v0-42.667zM746.667 746.667v-42.667c0-23.564-19.103-42.667-42.667-42.667s-42.667 19.103-42.667 42.667v0 42.667h-298.667v-42.667c0-23.564-19.103-42.667-42.667-42.667s-42.667 19.103-42.667 42.667v0 42.667h-127.851c-11.904 0-21.483-9.6-21.483-21.483v-639.701c0-11.883 9.6-21.483 21.483-21.483h725.035c11.904 0 21.483 9.6 21.483 21.483v639.701c0 11.883-9.6 21.483-21.483 21.483h-127.851zM512 405.333c-35.346 0-64 28.654-64 64s28.654 64 64 64v0c35.346 0 64-28.654 64-64s-28.654-64-64-64v0zM746.667 405.333c-35.346 0-64 28.654-64 64s28.654 64 64 64v0c35.346 0 64-28.654 64-64s-28.654-64-64-64v0zM277.333 170.667c-35.346 0-64 28.654-64 64s28.654 64 64 64v0c35.346 0 64-28.654 64-64s-28.654-64-64-64v0zM512 170.667c-35.346 0-64 28.654-64 64s28.654 64 64 64v0c35.346 0 64-28.654 64-64s-28.654-64-64-64v0z" />
<glyph unicode="&#xe931;" glyph-name="calendar-2" d="M746.667 832h127.851c0.006 0 0.014 0 0.021 0 58.981 0 106.795-47.814 106.795-106.795 0-0.008 0-0.015 0-0.023v0.001-639.701c0-0.013 0-0.028 0-0.043 0-58.969-47.804-106.773-106.773-106.773-0.015 0-0.030 0-0.045 0h-725.032c-0.006 0-0.014 0-0.021 0-58.981 0-106.795 47.814-106.795 106.795 0 0.008 0 0.015 0 0.023v-0.001 639.701c0 0.013 0 0.028 0 0.043 0 58.969 47.804 106.773 106.773 106.773 0.015 0 0.030 0 0.045 0h127.848v42.667c0 23.564 19.103 42.667 42.667 42.667s42.667-19.103 42.667-42.667v0-42.667h298.667v42.667c0 23.564 19.103 42.667 42.667 42.667s42.667-19.103 42.667-42.667v0-42.667zM746.667 746.667v-42.667c0-23.564-19.103-42.667-42.667-42.667s-42.667 19.103-42.667 42.667v0 42.667h-298.667v-42.667c0-23.564-19.103-42.667-42.667-42.667s-42.667 19.103-42.667 42.667v0 42.667h-127.851c-11.904 0-21.483-9.6-21.483-21.483v-639.701c0-11.883 9.6-21.483 21.483-21.483h725.035c11.904 0 21.483 9.6 21.483 21.483v639.701c0 11.883-9.6 21.483-21.483 21.483h-127.851zM661.333 490.667h-42.667c-23.564 0-42.667 19.103-42.667 42.667s19.103 42.667 42.667 42.667v0h85.333c23.564 0 42.667-19.103 42.667-42.667v0-341.333c0-23.564-19.103-42.667-42.667-42.667s-42.667 19.103-42.667 42.667v0 298.667zM362.944 368.363c-0.177 1.466-0.277 3.164-0.277 4.886 0 0.030 0 0.060 0 0.090v-0.005c0 9.92 3.371 19.029 8.917 26.112 6.077 7.828 14.692 13.432 24.594 15.586l0.281 0.051c6.612 1.597 14.346 2.71 22.27 3.103l0.3 0.012c16.992 5.905 28.971 21.781 28.971 40.455 0 0.005 0 0.010 0 0.016v-0.001c0 16.853-16.427 32-38.4 32-14.080 0-26.453-6.4-33.237-16.128-7.811-11.122-20.582-18.301-35.029-18.301-23.568 0-42.675 19.106-42.675 42.675 0 9.121 2.862 17.574 7.736 24.509l-0.091-0.136c22.827 32.811 61.483 52.715 103.317 52.715 67.584 0 123.712-51.712 123.712-117.333-0.028-27.381-8.615-52.751-23.228-73.585l0.274 0.412c27.114-23.92 44.163-58.703 44.288-97.471v-0.022c0-77.141-65.088-138.667-144.235-138.667-54.101 0-103.168 28.949-127.936 74.56-3.252 5.881-5.166 12.893-5.166 20.352 0 23.566 19.104 42.67 42.67 42.67 16.107 0 30.129-8.924 37.393-22.098l0.111-0.22c9.771-18.005 29.995-29.931 52.928-29.931 33.067 0 58.901 24.427 58.901 53.333 0 27.776-27.008 50.283-54.101 43.819-2.97-0.738-6.38-1.162-9.889-1.162-21.816 0-39.808 16.373-42.357 37.502l-0.020 0.204z" />
<glyph unicode="&#xe932;" glyph-name="car" d="M874.667 106.667v-63.957c-0.012-35.35-28.653-64.006-63.997-64.043h-0.003c-35.349 0-64 28.565-64 64.043v63.957h-469.333v-63.957c-0.012-35.35-28.653-64.006-63.997-64.043h-0.003c-35.349 0-64 28.565-64 64.043v63.957c-58.816 0.085-106.667 47.893-106.667 106.517v256.299c0 37.013 18.88 69.568 47.573 88.661l66.133 264.661c13.355 53.291 66.133 94.528 120.896 94.528h469.504c54.869 0 107.541-41.259 120.853-94.528l66.197-264.789c28.777-19.334 47.47-51.747 47.509-88.527v-256.305c-0.049-58.838-47.758-106.517-106.603-106.517-0.023 0-0.045 0-0.068 0h0.004zM784.832 802.112c-3.84 15.339-22.4 29.888-38.080 29.888h-469.504c-15.573 0-34.24-14.592-38.080-29.888l-56.533-226.112h658.709l-56.533 226.112zM128 469.483v-256.299c0-11.52 9.685-21.184 21.483-21.184h725.035c0.063-0.001 0.138-0.001 0.214-0.001 11.717 0 21.221 9.475 21.269 21.181v256.304c0 11.52-9.685 21.184-21.483 21.184h-725.035c-0.063 0.001-0.138 0.001-0.214 0.001-11.717 0-21.221-9.475-21.269-21.181v-0.005zM277.333 277.333c-35.346 0-64 28.654-64 64s28.654 64 64 64v0c35.346 0 64-28.654 64-64s-28.654-64-64-64v0zM746.667 277.333c-35.346 0-64 28.654-64 64s28.654 64 64 64v0c35.346 0 64-28.654 64-64s-28.654-64-64-64v0z" />
<glyph unicode="&#xe933;" glyph-name="card" d="M896 618.667v64.085c0 11.584-9.664 21.248-21.483 21.248h-725.035c-0.044 0-0.097 0.001-0.15 0.001-11.752 0-21.285-9.503-21.333-21.244v-64.090h768zM896 490.667h-768v-277.419c0-11.584 9.664-21.248 21.483-21.248h725.035c0.044 0 0.097-0.001 0.15-0.001 11.752 0 21.285 9.503 21.333 21.244v277.424zM42.667 682.752c0.049 58.874 47.786 106.581 106.667 106.581 0.053 0 0.105 0 0.158 0h725.027c58.923 0 106.816-47.829 106.816-106.581v-469.504c-0.049-58.874-47.786-106.581-106.667-106.581-0.053 0-0.105 0-0.158 0h-725.027c-58.923 0-106.816 47.829-106.816 106.581v469.504zM234.667 256c-23.564 0-42.667 19.103-42.667 42.667s19.103 42.667 42.667 42.667v0h42.667c23.564 0 42.667-19.103 42.667-42.667s-19.103-42.667-42.667-42.667v0h-42.667zM426.667 256c-23.564 0-42.667 19.103-42.667 42.667s19.103 42.667 42.667 42.667v0h128c23.564 0 42.667-19.103 42.667-42.667s-19.103-42.667-42.667-42.667v0h-128z" />
<glyph unicode="&#xe934;" glyph-name="cards" d="M128.149 517.333l50.133-427.392c1.557-13.653 15.637-25.941 30.165-25.941h607.061c14.464 0 28.608 12.416 30.187 25.941l50.133 427.392c1.131 9.707-4.587 16-15.36 16h-736.96c-10.731 0-16.491-6.379-15.36-16zM43.392 507.392c-7.125 60.736 38.699 111.275 100.117 111.275h736.981c61.397 0 107.264-50.389 100.117-111.275l-50.133-427.392c-6.656-56.789-57.451-101.333-114.944-101.333h-607.061c-57.536 0-108.267 44.395-114.944 101.333l-50.133 427.392zM213.333 682.667c-23.564 0-42.667 19.103-42.667 42.667s19.103 42.667 42.667 42.667v0h597.333c23.564 0 42.667-19.103 42.667-42.667s-19.103-42.667-42.667-42.667v0h-597.333zM320 832c-23.564 0-42.667 19.103-42.667 42.667s19.103 42.667 42.667 42.667v0h384c23.564 0 42.667-19.103 42.667-42.667s-19.103-42.667-42.667-42.667v0h-384z" />
<glyph unicode="&#xe935;" glyph-name="chart-1" d="M42.667 618.667c0 23.564 19.103 42.667 42.667 42.667s42.667-19.103 42.667-42.667v0-597.333c0-23.564-19.103-42.667-42.667-42.667s-42.667 19.103-42.667 42.667v0 597.333zM896 640c0 23.564 19.103 42.667 42.667 42.667s42.667-19.103 42.667-42.667v0-618.667c0-23.564-19.103-42.667-42.667-42.667s-42.667 19.103-42.667 42.667v0 618.667zM618.667 874.667c0 23.564 19.103 42.667 42.667 42.667s42.667-19.103 42.667-42.667v0-853.333c0-23.564-19.103-42.667-42.667-42.667s-42.667 19.103-42.667 42.667v0 853.333zM320 384c0 23.564 19.103 42.667 42.667 42.667s42.667-19.103 42.667-42.667v0-362.667c0-23.564-19.103-42.667-42.667-42.667s-42.667 19.103-42.667 42.667v0 362.667z" />
<glyph unicode="&#xe936;" glyph-name="chart-2" d="M810.667 810.517v-725.035c0-11.947 9.557-21.483 21.376-21.483h42.581c11.861 0 21.376 9.557 21.376 21.483v725.035c0 11.947-9.557 21.483-21.376 21.483h-42.581c-11.861 0-21.376-9.557-21.376-21.483zM725.333 810.517c0 0.038 0 0.083 0 0.128 0 58.922 47.766 106.688 106.688 106.688 0.008 0 0.015 0 0.023 0h42.58c58.934 0 106.709-47.775 106.709-106.709 0-0.038 0-0.075 0-0.113v0.006-725.035c0-0.038 0-0.083 0-0.128 0-58.922-47.766-106.688-106.688-106.688-0.008 0-0.015 0-0.023 0h-42.58c-58.934 0-106.709 47.775-106.709 106.709 0 0.038 0 0.075 0 0.113v-0.006 725.035zM42.667 554.731c0 0.006 0 0.014 0 0.021 0 58.863 47.718 106.581 106.581 106.581 0.045 0 0.090 0 0.135 0h42.574c58.874-0.036 106.6-47.717 106.709-106.571v-469.514c0-58.863-47.718-106.581-106.581-106.581-0.045 0-0.090 0-0.135 0h-42.574c-58.874 0.036-106.6 47.717-106.709 106.571v469.514zM128 554.731v-469.483c0-11.605 9.643-21.248 21.376-21.248h42.581c0.038 0 0.083 0 0.128 0 11.735 0 21.248 9.513 21.248 21.248 0 0 0 0 0 0v0 469.504c0 11.605-9.643 21.248-21.376 21.248h-42.581c-0.038 0-0.083 0-0.128 0-11.735 0-21.248-9.513-21.248-21.248 0 0 0 0 0 0v0zM384 298.475c0 0.044 0 0.097 0 0.149 0 58.934 47.775 106.709 106.709 106.709h42.581c0.019 0 0.042 0 0.064 0 58.899 0 106.645-47.747 106.645-106.645 0-0.083 0-0.165 0-0.248v0.013-212.907c0-0.051 0-0.111 0-0.171 0-58.934-47.775-106.709-106.709-106.709 0 0 0 0 0 0h-42.581c-0.019 0-0.042 0-0.064 0-58.899 0-106.645 47.747-106.645 106.645 0 0.083 0 0.165 0 0.248v-0.013 212.907zM469.333 298.475v-212.949c-0.001-0.063-0.001-0.138-0.001-0.213 0-11.77 9.542-21.312 21.312-21.312 0.023 0 0.046 0 0.069 0h42.577c11.84 0 21.376 9.579 21.376 21.547v212.907c0.001 0.070 0.001 0.152 0.001 0.235 0 11.77-9.542 21.312-21.312 21.312-0.023 0-0.046 0-0.069 0h-42.577c-11.84 0-21.376-9.579-21.376-21.547z" />
<glyph unicode="&#xe937;" glyph-name="chart-3" d="M42.667 810.517c0 0.019 0 0.041 0 0.064 0 58.958 47.794 106.752 106.752 106.752 0.022 0 0.045 0 0.067 0h725.031c0.019 0 0.041 0 0.064 0 58.958 0 106.752-47.794 106.752-106.752 0-0.022 0-0.045 0-0.067v0.003-725.035c0-0.019 0-0.041 0-0.064 0-58.958-47.794-106.752-106.752-106.752-0.022 0-0.045 0-0.067 0h-725.031c-0.019 0-0.041 0-0.064 0-58.958 0-106.752 47.794-106.752 106.752 0 0.022 0 0.045 0 0.067v-0.003 725.035zM128 810.517v-725.035c0-11.904 9.579-21.483 21.483-21.483h725.035c11.904 0 21.483 9.579 21.483 21.483v725.035c0 11.904-9.579 21.483-21.483 21.483h-725.035c-11.904 0-21.483-9.579-21.483-21.483zM256 320c0 23.564 19.103 42.667 42.667 42.667s42.667-19.103 42.667-42.667v0-85.333c0-23.564-19.103-42.667-42.667-42.667s-42.667 19.103-42.667 42.667v0 85.333zM469.333 490.667c0 23.564 19.103 42.667 42.667 42.667s42.667-19.103 42.667-42.667v0-256c0-23.564-19.103-42.667-42.667-42.667s-42.667 19.103-42.667 42.667v0 256zM682.667 661.333c0 23.564 19.103 42.667 42.667 42.667s42.667-19.103 42.667-42.667v0-426.667c0-23.564-19.103-42.667-42.667-42.667s-42.667 19.103-42.667 42.667v0 426.667z" />
<glyph unicode="&#xe938;" glyph-name="chart-4" d="M42.667 810.517c0 0.019 0 0.041 0 0.064 0 58.958 47.794 106.752 106.752 106.752 0.022 0 0.045 0 0.067 0h725.031c0.019 0 0.041 0 0.064 0 58.958 0 106.752-47.794 106.752-106.752 0-0.022 0-0.045 0-0.067v0.003-725.035c0-0.019 0-0.041 0-0.064 0-58.958-47.794-106.752-106.752-106.752-0.022 0-0.045 0-0.067 0h-725.031c-0.019 0-0.041 0-0.064 0-58.958 0-106.752 47.794-106.752 106.752 0 0.022 0 0.045 0 0.067v-0.003 725.035zM128 810.517v-725.035c0-11.904 9.579-21.483 21.483-21.483h725.035c11.904 0 21.483 9.579 21.483 21.483v725.035c0 11.904-9.579 21.483-21.483 21.483h-725.035c-11.904 0-21.483-9.579-21.483-21.483zM550.4 328.533l-141.056 105.813-165.845-165.845c-7.665-7.41-18.12-11.977-29.641-11.977-23.564 0-42.667 19.103-42.667 42.667 0 11.521 4.567 21.976 11.989 29.653l191.988 191.988c7.721 7.722 18.388 12.497 30.171 12.497 9.651 0 18.554-3.204 25.702-8.607l-0.107 0.078 142.464-106.837 208.576 189.611c7.597 7.087 17.826 11.437 29.072 11.437 23.564 0 42.667-19.103 42.667-42.667 0-12.678-5.53-24.065-14.309-31.88l-0.043-0.038-234.667-213.333c-7.548-6.879-17.63-11.091-28.696-11.091-9.652 0-18.556 3.205-25.705 8.609l0.107-0.078z" />
<glyph unicode="&#xe939;" glyph-name="chart-5" d="M896 782.293l-250.965-197.184c-7.18-5.68-16.366-9.111-26.353-9.111-9.169 0-17.662 2.892-24.618 7.814l0.133-0.089-187.157 130.987-295.040-236.011c-7.236-5.829-16.539-9.356-26.667-9.356-23.571 0-42.679 19.108-42.679 42.679 0 13.444 6.216 25.436 15.93 33.259l0.082 0.064 320 256c7.232 5.823 16.53 9.347 26.65 9.347 9.17 0 17.663-2.893 24.619-7.815l-0.133 0.089 187.392-131.179 203.947 160.213h-95.808c-23.564 0-42.667 19.103-42.667 42.667s19.103 42.667 42.667 42.667v0h213.333c23.564 0 42.667-19.103 42.667-42.667v0-213.333c0-23.564-19.103-42.667-42.667-42.667s-42.667 19.103-42.667 42.667v0 120.96zM149.333 405.333c0 23.564 19.103 42.667 42.667 42.667s42.667-19.103 42.667-42.667v0-384c0-23.564-19.103-42.667-42.667-42.667s-42.667 19.103-42.667 42.667v0 384zM362.667 576c0 23.564 19.103 42.667 42.667 42.667s42.667-19.103 42.667-42.667v0-554.667c0-23.564-19.103-42.667-42.667-42.667s-42.667 19.103-42.667 42.667v0 554.667zM576 448c0 23.564 19.103 42.667 42.667 42.667s42.667-19.103 42.667-42.667v0-426.667c0-23.564-19.103-42.667-42.667-42.667s-42.667 19.103-42.667 42.667v0 426.667zM789.333 533.333c0 23.564 19.103 42.667 42.667 42.667s42.667-19.103 42.667-42.667v0-512c0-23.564-19.103-42.667-42.667-42.667s-42.667 19.103-42.667 42.667v0 512z" />
<glyph unicode="&#xe93a;" glyph-name="chart-diagram-1" d="M810.667 426.667c23.564 0 42.667-19.103 42.667-42.667v0c0-223.851-181.483-405.333-405.333-405.333s-405.333 181.483-405.333 405.333 181.483 405.333 405.333 405.333c23.564 0 42.667-19.103 42.667-42.667v0-320h320zM128 384c0-176.725 143.275-320 320-320 162.261 0 296.32 120.768 317.184 277.333h-317.184c-23.564 0-42.667 19.103-42.667 42.667v0 317.184c-156.565-20.864-277.333-154.923-277.333-317.184zM576 917.333c223.851 0 405.333-181.483 405.333-405.333 0-23.564-19.103-42.667-42.667-42.667v0h-362.667c-23.564 0-42.667 19.103-42.667 42.667v0 362.667c0 23.564 19.103 42.667 42.667 42.667v0zM618.667 554.667h274.517c-18.987 142.592-131.925 255.509-274.517 274.517v-274.517z" />
<glyph unicode="&#xe93b;" glyph-name="chart-diagram-2" d="M272.32 147.968c64.858-52.31 148.278-83.968 239.092-83.968 0.207 0 0.414 0 0.621 0h-0.032c212.075 0 384 171.925 384 384 0 197.653-149.333 360.427-341.333 381.653v-381.653c0-12.459-5.163-23.253-13.184-30.869l-269.163-269.163zM211.968 208.32l225.92 225.92-292.224 129.173c-11.204-34.406-17.664-73.999-17.664-115.1 0-0.11 0-0.22 0-0.33v0.017c0-90.667 31.424-173.995 83.968-239.68zM180.203 641.451l289.131-127.787v315.989c-123.477-13.653-229.312-85.845-289.131-188.203zM512-21.333c-259.2 0-469.333 210.133-469.333 469.333s210.133 469.333 469.333 469.333 469.333-210.133 469.333-469.333-210.133-469.333-469.333-469.333z" />
<glyph unicode="&#xe93c;" glyph-name="chart-down-1" d="M618.667 405.333c0 23.564 19.103 42.667 42.667 42.667s42.667-19.103 42.667-42.667v0-384c0-23.564-19.103-42.667-42.667-42.667s-42.667 19.103-42.667 42.667v0 384zM320 640c0 23.564 19.103 42.667 42.667 42.667s42.667-19.103 42.667-42.667v0-618.667c0-23.564-19.103-42.667-42.667-42.667s-42.667 19.103-42.667 42.667v0 618.667zM42.667 874.667c0 23.564 19.103 42.667 42.667 42.667s42.667-19.103 42.667-42.667v0-853.333c0-23.564-19.103-42.667-42.667-42.667s-42.667 19.103-42.667 42.667v0 853.333zM896 170.667c0 23.564 19.103 42.667 42.667 42.667s42.667-19.103 42.667-42.667v0-149.333c0-23.564-19.103-42.667-42.667-42.667s-42.667 19.103-42.667 42.667v0 149.333z" />
<glyph unicode="&#xe93d;" glyph-name="chart-down-2" d="M128 810.517v-725.035c0-11.947 9.557-21.483 21.376-21.483h42.581c11.861 0 21.376 9.557 21.376 21.483v725.035c0 11.947-9.557 21.483-21.376 21.483h-42.581c-11.861 0-21.376-9.557-21.376-21.483zM42.667 810.517c0 0.038 0 0.083 0 0.128 0 58.922 47.766 106.688 106.688 106.688 0.008 0 0.015 0 0.023 0h42.58c58.934 0 106.709-47.775 106.709-106.709 0-0.038 0-0.075 0-0.113v0.006-725.035c0-0.038 0-0.083 0-0.128 0-58.922-47.766-106.688-106.688-106.688-0.008 0-0.015 0-0.023 0h-42.58c-58.934 0-106.709 47.775-106.709 106.709 0 0.038 0 0.075 0 0.113v-0.006 725.035zM384 554.731c0 0.006 0 0.014 0 0.021 0 58.863 47.718 106.581 106.581 106.581 0.045 0 0.090 0 0.135 0h42.574c58.874-0.036 106.6-47.717 106.709-106.571v-469.514c0-58.863-47.718-106.581-106.581-106.581-0.045 0-0.090 0-0.135 0h-42.574c-58.874 0.036-106.6 47.717-106.709 106.571v469.514zM469.333 554.731v-469.483c0-11.605 9.643-21.248 21.376-21.248h42.581c0.038 0 0.083 0 0.128 0 11.735 0 21.248 9.513 21.248 21.248 0 0 0 0 0 0v0 469.504c0 11.605-9.643 21.248-21.376 21.248h-42.581c-0.038 0-0.083 0-0.128 0-11.735 0-21.248-9.513-21.248-21.248 0 0 0 0 0 0v0zM725.333 298.475c0 0.044 0 0.097 0 0.149 0 58.934 47.775 106.709 106.709 106.709h42.581c0.019 0 0.042 0 0.064 0 58.899 0 106.645-47.747 106.645-106.645 0-0.083 0-0.165 0-0.248v0.013-212.907c0-0.051 0-0.111 0-0.171 0-58.934-47.775-106.709-106.709-106.709 0 0 0 0 0 0h-42.581c-0.019 0-0.042 0-0.064 0-58.899 0-106.645 47.747-106.645 106.645 0 0.083 0 0.165 0 0.248v-0.013 212.907zM810.667 298.475v-212.949c-0.001-0.063-0.001-0.138-0.001-0.213 0-11.77 9.542-21.312 21.312-21.312 0.023 0 0.046 0 0.069 0h42.577c11.84 0 21.376 9.579 21.376 21.547v212.907c0.001 0.070 0.001 0.152 0.001 0.235 0 11.77-9.542 21.312-21.312 21.312-0.023 0-0.046 0-0.069 0h-42.577c-11.84 0-21.376-9.579-21.376-21.547z" />
<glyph unicode="&#xe93e;" glyph-name="chart-up-1" d="M320 405.333c0 23.564 19.103 42.667 42.667 42.667s42.667-19.103 42.667-42.667v0-384c0-23.564-19.103-42.667-42.667-42.667s-42.667 19.103-42.667 42.667v0 384zM618.667 640c0 23.564 19.103 42.667 42.667 42.667s42.667-19.103 42.667-42.667v0-618.667c0-23.564-19.103-42.667-42.667-42.667s-42.667 19.103-42.667 42.667v0 618.667zM896 874.667c0 23.564 19.103 42.667 42.667 42.667s42.667-19.103 42.667-42.667v0-853.333c0-23.564-19.103-42.667-42.667-42.667s-42.667 19.103-42.667 42.667v0 853.333zM42.667 170.667c0 23.564 19.103 42.667 42.667 42.667s42.667-19.103 42.667-42.667v0-149.333c0-23.564-19.103-42.667-42.667-42.667s-42.667 19.103-42.667 42.667v0 149.333z" />
<glyph unicode="&#xe93f;" glyph-name="chart-up-2" d="M810.667 810.517v-725.035c0-11.947 9.557-21.483 21.376-21.483h42.581c11.861 0 21.376 9.557 21.376 21.483v725.035c0 11.947-9.557 21.483-21.376 21.483h-42.581c-11.861 0-21.376-9.557-21.376-21.483zM725.333 810.517c0 0.038 0 0.083 0 0.128 0 58.922 47.766 106.688 106.688 106.688 0.008 0 0.015 0 0.023 0h42.58c58.934 0 106.709-47.775 106.709-106.709 0-0.038 0-0.075 0-0.113v0.006-725.035c0-0.038 0-0.083 0-0.128 0-58.922-47.766-106.688-106.688-106.688-0.008 0-0.015 0-0.023 0h-42.58c-58.934 0-106.709 47.775-106.709 106.709 0 0.038 0 0.075 0 0.113v-0.006 725.035zM384 554.731c0 0.006 0 0.014 0 0.021 0 58.863 47.718 106.581 106.581 106.581 0.045 0 0.090 0 0.135 0h42.574c58.874-0.036 106.6-47.717 106.709-106.571v-469.514c0-58.863-47.718-106.581-106.581-106.581-0.045 0-0.090 0-0.135 0h-42.574c-58.874 0.036-106.6 47.717-106.709 106.571v469.514zM469.333 554.731v-469.483c0-11.605 9.643-21.248 21.376-21.248h42.581c0.038 0 0.083 0 0.128 0 11.735 0 21.248 9.513 21.248 21.248 0 0 0 0 0 0v0 469.504c0 11.605-9.643 21.248-21.376 21.248h-42.581c-0.038 0-0.083 0-0.128 0-11.735 0-21.248-9.513-21.248-21.248 0 0 0 0 0 0v0zM42.667 298.496c0 0.038 0 0.083 0 0.128 0 58.934 47.775 106.709 106.709 106.709 0 0 0 0 0 0h42.581c0.019 0 0.042 0 0.064 0 58.899 0 106.645-47.747 106.645-106.645 0-0.083 0-0.165 0-0.248v0.013-212.907c0-0.051 0-0.111 0-0.171 0-58.934-47.775-106.709-106.709-106.709 0 0 0 0 0 0h-42.581c-0.019 0-0.042 0-0.064 0-58.899 0-106.645 47.747-106.645 106.645 0 0.083 0 0.165 0 0.248v-0.013 212.907zM128 298.496v-212.949c-0.001-0.070-0.001-0.152-0.001-0.235 0-11.77 9.542-21.312 21.312-21.312 0.023 0 0.046 0 0.069 0h42.577c11.84 0 21.376 9.579 21.376 21.547v212.907c0.001 0.070 0.001 0.152 0.001 0.235 0 11.77-9.542 21.312-21.312 21.312-0.023 0-0.046 0-0.069 0h-42.577c-11.84 0-21.376-9.579-21.376-21.547z" />
<glyph unicode="&#xe940;" glyph-name="check-1" d="M115.499 499.499c-7.665 7.41-18.12 11.977-29.641 11.977-23.564 0-42.667-19.103-42.667-42.667 0-11.521 4.567-21.976 11.989-29.653l298.655-298.655c7.721-7.718 18.386-12.492 30.165-12.492s22.445 4.774 30.165 12.492l554.667 554.667c7.41 7.665 11.977 18.12 11.977 29.641 0 23.564-19.103 42.667-42.667 42.667-11.521 0-21.976-4.567-29.653-11.989l-524.489-524.489-268.501 268.501z" />
<glyph unicode="&#xe941;" glyph-name="check-2" d="M196.907 463.637c-3.509 3.508-8.356 5.677-13.71 5.677-5.214 0-9.948-2.058-13.433-5.406l0.006 0.006-36.373-36.096c-3.345-3.272-5.418-7.831-5.418-12.875s2.074-9.603 5.415-12.871l0.003-0.003 222.507-219.819c7.219-7.162 17.162-11.588 28.139-11.588 10.955 0 20.881 4.409 28.099 11.549l-0.004-0.004 478.443 475.797c3.346 3.295 5.419 7.875 5.419 12.938 0 5.032-2.047 9.586-5.354 12.874l-36.353 36.097c-3.47 3.362-8.207 5.434-13.428 5.434-5.296 0-10.094-2.132-13.582-5.585l0.002 0.002-413.163-411.029c-7.713-7.674-18.348-12.418-30.091-12.418-11.679 0-22.262 4.693-29.967 12.295l0.005-0.005-157.184 155.029zM383.893 399.040l383.253 381.248c40.704 40.384 106.581 40.533 147.264 0.192l36.352-36.096c18.884-18.75 30.573-44.725 30.573-73.43 0-28.726-11.706-54.718-30.609-73.465l-0.007-0.007-478.443-475.797c-22.636-22.471-53.819-36.359-88.246-36.359-34.395 0-65.552 13.862-88.19 36.303l0.009-0.009-222.464 219.819c-18.961 18.746-30.704 44.759-30.704 73.514 0 28.713 11.708 54.692 30.611 73.422l0.008 0.008 36.373 36.096c40.597 40.299 106.496 40.213 147.2-0.128l127.040-125.312z" />
<glyph unicode="&#xe942;" glyph-name="check-3" d="M512-21.333c-259.2 0-469.333 210.133-469.333 469.333s210.133 469.333 469.333 469.333 469.333-210.133 469.333-469.333-210.133-469.333-469.333-469.333zM512 64c212.075 0 384 171.925 384 384s-171.925 384-384 384-384-171.925-384-384 171.925-384 384-384zM350.165 478.165l97.835-97.835 225.835 225.835c7.665 7.41 18.12 11.977 29.641 11.977 23.564 0 42.667-19.103 42.667-42.667 0-11.521-4.567-21.976-11.989-29.653l-255.988-255.988c-7.721-7.718-18.386-12.492-30.165-12.492s-22.445 4.774-30.165 12.492l-128 128c-7.41 7.665-11.977 18.12-11.977 29.641 0 23.564 19.103 42.667 42.667 42.667 11.521 0 21.976-4.567 29.653-11.989l-0.012 0.012z" />
<glyph unicode="&#xe943;" glyph-name="clip" d="M839.36 377.515l-245.653-244.821c-91.904-91.584-240.917-91.584-332.843 0-42.535 42.326-68.857 100.91-68.857 165.643 0 64.743 26.331 123.336 68.868 165.654l0.010 0.010 327.552 326.4c55.637 55.467 146.176 55.424 201.813 0 25.798-25.629 41.766-61.125 41.766-100.352 0-39.173-15.925-74.627-41.655-100.24l-0.005-0.005-327.616-326.464c-9.097-9.032-21.63-14.613-35.467-14.613-13.805 0-26.312 5.556-35.407 14.554l0.004-0.004c-9.011 8.956-14.588 21.358-14.588 35.062 0 13.757 5.62 26.202 14.69 35.163l0.005 0.005 245.568 244.715c7.756 7.727 12.556 18.418 12.556 30.229 0 23.565-19.103 42.668-42.668 42.668-11.753 0-22.397-4.752-30.113-12.44l-245.588-244.735c-24.58-24.416-39.795-58.234-39.795-95.605 0-37.329 15.18-71.113 39.704-95.515l0.005-0.005c24.521-24.36 58.31-39.416 95.616-39.416 37.349 0 71.172 15.091 95.707 39.507l-0.005-0.005 327.637 326.485c89.024 88.747 88.96 232.683-0.128 321.472-88.917 88.597-233.301 88.661-322.261 0l-327.573-326.4c-125.291-124.843-125.291-327.339-0.021-452.181 125.227-124.8 328.107-124.779 453.312 0l245.675 244.821c7.75 7.726 12.545 18.412 12.545 30.219 0 23.565-19.103 42.668-42.668 42.668-11.759 0-22.406-4.756-30.124-12.45l0.001 0.001z" />
<glyph unicode="&#xe944;" glyph-name="clock-1" d="M512-21.333c-259.2 0-469.333 210.133-469.333 469.333s210.133 469.333 469.333 469.333 469.333-210.133 469.333-469.333-210.133-469.333-469.333-469.333zM512 64c212.075 0 384 171.925 384 384s-171.925 384-384 384-384-171.925-384-384 171.925-384 384-384zM542.165 417.835c-7.702-7.723-18.354-12.501-30.121-12.501-0.015 0-0.031 0-0.046 0h-191.998c-23.564 0-42.667 19.103-42.667 42.667s19.103 42.667 42.667 42.667v0h149.333v213.333c0 23.564 19.103 42.667 42.667 42.667s42.667-19.103 42.667-42.667v0-256c0-11.776-4.779-22.443-12.501-30.165z" />
<glyph unicode="&#xe945;" glyph-name="clock-2" d="M512-21.333c-235.648 0-426.667 191.019-426.667 426.667s191.019 426.667 426.667 426.667 426.667-191.019 426.667-426.667-191.019-426.667-426.667-426.667zM512 64c188.523 0 341.333 152.811 341.333 341.333s-152.811 341.333-341.333 341.333-341.333-152.811-341.333-341.333 152.811-341.333 341.333-341.333zM115.499 695.168c-7.665-7.41-18.12-11.977-29.641-11.977-23.564 0-42.667 19.103-42.667 42.667 0 11.521 4.567 21.976 11.989 29.653l149.321 149.321c7.665 7.41 18.12 11.977 29.641 11.977 23.564 0 42.667-19.103 42.667-42.667 0-11.521-4.567-21.976-11.989-29.653l-149.321-149.321zM968.832 755.499c7.41-7.665 11.977-18.12 11.977-29.641 0-23.564-19.103-42.667-42.667-42.667-11.521 0-21.976 4.567-29.653 11.989l-149.321 149.321c-7.41 7.665-11.977 18.12-11.977 29.641 0 23.564 19.103 42.667 42.667 42.667 11.521 0 21.976-4.567 29.653-11.989l149.321-149.321zM542.165 375.168c-7.702-7.723-18.354-12.501-30.121-12.501-0.015 0-0.031 0-0.046 0h-149.331c-23.564 0-42.667 19.103-42.667 42.667s19.103 42.667 42.667 42.667v0h106.667v170.667c0 23.564 19.103 42.667 42.667 42.667s42.667-19.103 42.667-42.667v0-213.333c0-11.776-4.779-22.443-12.501-30.165z" />
<glyph unicode="&#xe946;" glyph-name="cloud-download" d="M512 746.667c134.101 0 249.451-88.96 286.357-213.547 102.073-4.965 182.952-88.931 182.952-191.787 0-106.030-85.947-191.986-191.974-192h-0.001c-23.564 0-42.667 19.103-42.667 42.667s19.103 42.667 42.667 42.667v0c58.835 0.1 106.491 47.818 106.491 106.667 0 58.91-47.756 106.667-106.667 106.667-6.146 0-12.171-0.52-18.033-1.518l0.63 0.089c-2.097-0.365-4.512-0.574-6.975-0.574-21.191 0-38.774 15.448-42.1 35.698l-0.034 0.247c-16.384 102.72-105.451 179.392-210.645 179.392-0.037 0-0.081 0-0.125 0-78.682 0-147.409-42.621-184.353-106.036l-0.546-1.015c-7.511-12.858-21.246-21.36-36.966-21.36-0.978 0-1.947 0.033-2.908 0.098l0.13-0.007c-2.922 0.204-6.333 0.32-9.77 0.32-82.475 0-149.333-66.859-149.333-149.333 0-82.429 66.786-149.26 149.198-149.333h0.007c23.564 0 42.667-19.103 42.667-42.667s-19.103-42.667-42.667-42.667v0c-129.6 0-234.667 105.067-234.667 234.667 0 126.037 99.371 228.864 224.021 234.432 54.606 77.921 143.993 128.235 245.131 128.235 0.064 0 0.127 0 0.191 0h-0.010zM554.667 294.997l55.168 55.168c7.665 7.41 18.12 11.977 29.641 11.977 23.564 0 42.667-19.103 42.667-42.667 0-11.521-4.567-21.976-11.989-29.653l-127.988-127.988c-7.721-7.718-18.386-12.492-30.165-12.492s-22.445 4.774-30.165 12.492l-128 128c-7.41 7.665-11.977 18.12-11.977 29.641 0 23.564 19.103 42.667 42.667 42.667 11.521 0 21.976-4.567 29.653-11.989l55.156-55.156v195.797c0 23.488 18.944 42.539 42.667 42.539 23.573 0 42.667-19.093 42.667-42.539v-195.797z" />
<glyph unicode="&#xe947;" glyph-name="cloud-upload" d="M512 746.667c134.101 0 249.451-88.96 286.357-213.547 102.073-4.965 182.952-88.931 182.952-191.787 0-106.030-85.947-191.986-191.974-192h-0.001c-23.564 0-42.667 19.103-42.667 42.667s19.103 42.667 42.667 42.667v0c58.835 0.1 106.491 47.818 106.491 106.667 0 58.91-47.756 106.667-106.667 106.667-6.146 0-12.171-0.52-18.033-1.518l0.63 0.089c-2.097-0.365-4.512-0.574-6.975-0.574-21.191 0-38.774 15.448-42.1 35.698l-0.034 0.247c-16.384 102.72-105.451 179.392-210.645 179.392-0.037 0-0.081 0-0.125 0-78.682 0-147.409-42.621-184.353-106.036l-0.546-1.015c-7.511-12.858-21.246-21.36-36.966-21.36-0.978 0-1.947 0.033-2.908 0.098l0.13-0.007c-2.922 0.204-6.333 0.32-9.77 0.32-82.475 0-149.333-66.859-149.333-149.333 0-82.429 66.786-149.26 149.198-149.333h0.007c23.564 0 42.667-19.103 42.667-42.667s-19.103-42.667-42.667-42.667v0c-129.6 0-234.667 105.067-234.667 234.667 0 126.037 99.371 228.864 224.021 234.432 54.606 77.921 143.993 128.235 245.131 128.235 0.064 0 0.127 0 0.191 0h-0.010zM554.667 387.669v-195.797c0-0.013 0-0.028 0-0.043 0-23.47-19.026-42.496-42.496-42.496-0.060 0-0.12 0-0.18 0h0.009c-23.573 0-42.667 19.093-42.667 42.539v195.797l-55.168-55.168c-7.665-7.41-18.12-11.977-29.641-11.977-23.564 0-42.667 19.103-42.667 42.667 0 11.521 4.567 21.976 11.989 29.653l127.988 127.988c7.721 7.718 18.386 12.492 30.165 12.492s22.445-4.774 30.165-12.492l128-128c7.41-7.665 11.977-18.12 11.977-29.641 0-23.564-19.103-42.667-42.667-42.667-11.521 0-21.976 4.567-29.653 11.989l-55.156 55.156z" />
<glyph unicode="&#xe948;" glyph-name="cloud" d="M128 384c0-82.475 66.859-149.333 149.333-149.333v0h512c58.835 0.1 106.491 47.818 106.491 106.667 0 58.91-47.756 106.667-106.667 106.667-6.146 0-12.171-0.52-18.033-1.518l0.63 0.089c-2.097-0.365-4.512-0.574-6.975-0.574-21.191 0-38.774 15.448-42.1 35.698l-0.034 0.247c-16.384 102.72-105.451 179.392-210.645 179.392-0.037 0-0.081 0-0.125 0-78.682 0-147.409-42.621-184.353-106.036l-0.546-1.015c-7.511-12.858-21.246-21.36-36.966-21.36-0.978 0-1.947 0.033-2.908 0.098l0.13-0.007c-2.961 0.209-6.416 0.328-9.899 0.328-82.475 0-149.333-66.859-149.333-149.333 0-0.003 0-0.006 0-0.009v0zM981.333 341.333c0-106.039-85.961-192-192-192v0h-512c-129.6 0-234.667 105.067-234.667 234.667 0 126.037 99.371 228.864 224.021 234.432 54.606 77.921 143.993 128.235 245.131 128.235 0.064 0 0.127 0 0.191 0h-0.010c134.101 0 249.451-88.96 286.357-213.547 102.083-4.952 182.975-88.923 182.976-191.787v0z" />
<glyph unicode="&#xe949;" glyph-name="coin-1" d="M469.333 320v209.899l-37.333-29.867c-7.235-5.831-16.539-9.359-26.667-9.359-23.566 0-42.671 19.104-42.671 42.671 0 13.439 6.212 25.426 15.922 33.248l0.082 0.064 106.667 85.333c27.947 22.336 69.333 2.453 69.333-33.323v-298.667h64c23.564 0 42.667-19.103 42.667-42.667s-19.103-42.667-42.667-42.667v0h-213.333c-23.564 0-42.667 19.103-42.667 42.667s19.103 42.667 42.667 42.667v0h64zM512-21.333c-259.2 0-469.333 210.133-469.333 469.333s210.133 469.333 469.333 469.333 469.333-210.133 469.333-469.333-210.133-469.333-469.333-469.333zM512 64c212.075 0 384 171.925 384 384s-171.925 384-384 384-384-171.925-384-384 171.925-384 384-384z" />
<glyph unicode="&#xe94a;" glyph-name="coins-1" d="M128 345.771c2.389-2.496 6.613-5.696 12.587-9.216 17.365-10.283 44.821-20.437 80.064-29.248 75.84-18.987 179.925-29.973 291.349-29.973s215.509 11.008 291.349 29.973c35.243 8.811 62.72 18.987 80.085 29.227 5.973 3.541 10.176 6.741 12.565 9.237v115.669c-84.139-37.056-223.189-56.107-384-56.107s-299.861 19.051-384 56.107v-115.669zM128 248.107v-115.669c2.389-2.496 6.613-5.696 12.587-9.216 17.365-10.283 44.821-20.437 80.064-29.248 75.84-18.987 179.925-29.973 291.349-29.973s215.509 11.008 291.349 29.973c35.243 8.811 62.72 18.987 80.085 29.227 5.973 3.541 10.176 6.741 12.565 9.237v115.669c-84.139-37.056-223.189-56.107-384-56.107s-299.861 19.051-384 56.107zM128 559.104c2.389-2.496 6.613-5.696 12.587-9.216 17.365-10.283 44.821-20.437 80.064-29.248 75.84-18.987 179.925-29.973 291.349-29.973s215.509 11.008 291.349 29.973c35.243 8.811 62.72 18.987 80.085 29.227 5.973 3.541 10.176 6.741 12.565 9.237v115.669c-84.139-37.056-223.189-56.107-384-56.107s-299.861 19.051-384 56.107v-115.669zM133.227 768c2.048-1.493 4.48-3.115 7.339-4.779 17.387-10.283 44.843-20.437 80.085-29.248 75.84-18.987 179.925-29.973 291.349-29.973s215.509 11.008 291.349 29.973c35.243 8.811 62.72 18.987 80.085 29.227 2.885 1.698 5.28 3.284 7.591 4.977l-0.253-0.177c-2.055 1.508-4.45 3.086-6.922 4.55l-0.417 0.229c-17.387 10.283-44.843 20.437-80.085 29.248-75.84 18.987-179.925 29.973-291.349 29.973s-215.509-11.008-291.349-29.973c-35.243-8.811-62.72-18.987-80.085-29.227-2.885-1.698-5.28-3.284-7.591-4.977l0.253 0.177zM42.667 128v640c0 97.984 205.355 149.333 469.333 149.333s469.333-51.349 469.333-149.333v-640c0-97.984-205.355-149.333-469.333-149.333s-469.333 51.349-469.333 149.333z" />
<glyph unicode="&#xe94b;" glyph-name="coins-2" d="M362.667 234.667v170.667l-17.067-12.8c-18.851-14.138-45.595-10.318-59.733 8.533s-10.318 45.595 8.533 59.733l85.333 64c28.127 21.096 68.267 1.026 68.267-34.133v-256h42.667c23.564 0 42.667-19.103 42.667-42.667s-19.103-42.667-42.667-42.667h-170.667c-23.564 0-42.667 19.103-42.667 42.667s19.103 42.667 42.667 42.667h42.667zM723.94 514.731c40.045 3.571 76.25 10.516 104.92 20.073 19.026 6.342 33.437 13.453 41.946 20.158 1.734 1.367 3.009 2.545 3.861 3.457v115.192c-54.226-22.154-129.798-33.611-213.333-33.611-17.913 0-35.459 0.527-52.507 1.573 47.746-32.424 87.352-75.939 115.114-126.842v0zM756.555 432.076c7.471-29.002 11.445-59.408 11.445-90.743 0-11.693-0.553-23.257-1.635-34.667 23.222 3.762 44.365 8.761 62.496 14.804 19.026 6.342 33.437 13.453 41.946 20.158 1.734 1.367 3.009 2.545 3.861 3.457v115.192c-32.618-13.326-72.959-22.782-118.112-28.202v0zM662.221 85.334c64.152 0.077 123.805 8.525 166.639 22.804 19.026 6.342 33.437 13.453 41.946 20.158 1.734 1.367 3.009 2.545 3.861 3.457v115.192c-35.058-14.323-79.038-24.175-128.324-29.35-18.211-50.176-47.181-95.192-84.121-132.26v0zM548.058 7.83c-43.804-18.771-92.050-29.164-142.724-29.164-200.295 0-362.667 162.371-362.667 362.667 0 185.861 139.811 339.066 320 360.183v87.817c0 83.391 133.828 128 298.667 128s298.667-44.609 298.667-128v-661.333c0-83.391-133.828-128-298.667-128-40.085 0-78.337 2.638-113.276 7.83v0zM448 771.752c0.851-0.912 2.127-2.090 3.861-3.457 8.508-6.705 22.92-13.816 41.946-20.158 43.032-14.344 103.037-22.804 167.527-22.804s124.495 8.46 167.527 22.804c19.026 6.342 33.437 13.453 41.946 20.158 1.734 1.367 3.009 2.545 3.861 3.457v13.829c-0.851 0.912-2.127 2.090-3.861 3.457-8.508 6.705-22.92 13.816-41.946 20.158-43.032 14.344-103.037 22.804-167.527 22.804s-124.495-8.46-167.527-22.804c-19.026-6.342-33.437-13.453-41.946-20.158-1.734-1.367-3.009-2.545-3.861-3.457v-13.829zM405.333 64c153.167 0 277.333 124.166 277.333 277.333s-124.166 277.333-277.333 277.333c-153.167 0-277.333-124.166-277.333-277.333s124.166-277.333 277.333-277.333z" />
<glyph unicode="&#xe94c;" glyph-name="color-picker" d="M764.331 469.333l55.168-55.168c7.41-7.665 11.977-18.12 11.977-29.641 0-23.564-19.103-42.667-42.667-42.667-11.521 0-21.976 4.567-29.653 11.989l-55.156 55.156-417.835-417.835c-7.719-7.722-18.384-12.499-30.165-12.501h-170.667c-23.564 0-42.667 19.103-42.667 42.667v0 170.667c0.003 11.781 4.78 22.446 12.501 30.165l417.835 417.835-55.168 55.168c-7.41 7.665-11.977 18.12-11.977 29.641 0 23.564 19.103 42.667 42.667 42.667 11.521 0 21.976-4.567 29.653-11.989l55.156-55.156 159.168 159.189c33.067 33.067 92.779 57.813 139.52 57.813 82.45-0.012 149.288-66.842 149.312-149.288v-0.002c0-46.72-24.747-106.453-57.813-139.52l-159.189-159.189zM704 529.664l159.168 159.189c17.067 17.067 32.832 55.104 32.832 79.189-0.024 35.313-28.644 63.933-63.955 63.957h-0.002c-24.107 0-62.144-15.765-79.189-32.832l-159.189-159.168 110.336-110.336zM643.669 469.333l-110.336 110.336-405.333-405.333v-110.336h110.336l405.333 405.333z" />
<glyph unicode="&#xe94d;" glyph-name="colors" d="M214.635 569.216c-0.853 9.259-1.301 18.624-1.301 28.117 0 164.949 133.717 298.667 298.667 298.667s298.667-133.717 298.667-298.667c0-9.493-0.427-18.859-1.301-28.117 101.611-47.68 171.968-150.891 171.968-270.549 0-164.949-133.717-298.667-298.667-298.667-63.445 0-122.283 19.797-170.667 53.547-47.455-33.502-106.492-53.547-170.211-53.547-0.16 0-0.32 0-0.48 0h0.025c-164.949 0-298.667 133.717-298.667 298.667 0 119.659 70.357 222.869 171.968 270.549zM235.584 483.989c-64.729-37.429-107.584-106.324-107.584-185.229 0-0.033 0-0.066 0-0.099v0.005c0-117.824 95.509-213.333 213.333-213.333 38.869 0 75.307 10.389 106.667 28.544-39.89 50.156-64 114.417-64 184.309 0 0.169 0 0.338 0 0.507v-0.026c0 9.493 0.427 18.859 1.301 28.117-67.846 32.399-120.506 87.492-148.981 155.253l-0.736 1.974zM469.355 301.696l-0.021-3.029c0-117.824 95.509-213.333 213.333-213.333s213.333 95.509 213.333 213.333c0 79.36-43.307 148.565-107.584 185.323-44.651-108.736-151.616-185.323-276.416-185.323-14.485 0-28.715 1.024-42.645 3.029zM512 384c117.824 0 213.333 95.509 213.333 213.333s-95.509 213.333-213.333 213.333-213.333-95.509-213.333-213.333 95.509-213.333 213.333-213.333z" />
<glyph unicode="&#xe94e;" glyph-name="compass" d="M512-21.333c-259.206 0-469.333 210.128-469.333 469.333s210.128 469.333 469.333 469.333c259.206 0 469.333-210.128 469.333-469.333s-210.128-469.333-469.333-469.333zM512 64c212.077 0 384 171.923 384 384s-171.923 384-384 384c-212.077 0-384-171.923-384-384s171.923-384 384-384zM393.612 595.692l298.667 85.333c32.186 9.196 61.942-20.561 52.746-52.746l-85.333-298.667c-4.050-14.174-15.129-25.254-29.304-29.304l-298.667-85.333c-32.186-9.196-61.942 20.561-52.746 52.746l85.333 298.667c4.050 14.174 15.129 25.254 29.304 29.304zM382.124 318.124l202.030 57.723 57.723 202.030-202.030-57.723-57.723-202.030zM512 405.333c-23.564 0-42.667 19.103-42.667 42.667s19.103 42.667 42.667 42.667c23.564 0 42.667-19.103 42.667-42.667s-19.103-42.667-42.667-42.667z" />
<glyph unicode="&#xe94f;" glyph-name="coordinate" d="M893.653 405.333c-19.669-177.984-161.003-319.317-338.987-338.987v-45.013c0-23.564-19.103-42.667-42.667-42.667s-42.667 19.103-42.667 42.667v0 45.013c-177.984 19.669-319.317 161.003-338.987 338.987h-45.013c-23.564 0-42.667 19.103-42.667 42.667s19.103 42.667 42.667 42.667v0h45.013c19.669 177.984 161.003 319.317 338.987 338.987v45.013c0 23.564 19.103 42.667 42.667 42.667s42.667-19.103 42.667-42.667v0-45.013c177.984-19.669 319.317-161.003 338.987-338.987h45.013c23.564 0 42.667-19.103 42.667-42.667s-19.103-42.667-42.667-42.667v0h-45.013zM512 149.333c164.949 0 298.667 133.717 298.667 298.667s-133.717 298.667-298.667 298.667-298.667-133.717-298.667-298.667 133.717-298.667 298.667-298.667zM512 277.333c-94.257 0-170.667 76.41-170.667 170.667s76.41 170.667 170.667 170.667v0c94.257 0 170.667-76.41 170.667-170.667s-76.41-170.667-170.667-170.667v0zM512 362.667c47.128 0 85.333 38.205 85.333 85.333s-38.205 85.333-85.333 85.333v0c-47.128 0-85.333-38.205-85.333-85.333s38.205-85.333 85.333-85.333v0z" />
<glyph unicode="&#xe950;" glyph-name="crown" d="M896 251.243v-101.867c0-0.051 0-0.111 0-0.171 0-58.84-47.699-106.539-106.539-106.539-0.015 0-0.030 0-0.045 0h-554.835c-58.863 0-106.581 47.718-106.581 106.581 0 0.045 0 0.090 0 0.135v-0.007 101.867l-82.859 367.573c-14.4 75.179 47.317 113.344 107.392 68.48l157.504-117.717c7.723-5.76 13.888-4.309 18.133 4.117l116.395 231.957c31.915 63.595 102.976 63.531 134.848 0l116.416-231.957c4.267-8.448 10.389-9.877 18.133-4.117l157.504 117.717c60.075 44.885 121.813 6.784 107.392-68.48l-82.859-367.552zM204.8 298.667h614.4l65.92 292.309-120.107-89.749c-50.197-37.525-117.333-21.824-145.451 34.197l-107.563 214.336-107.584-214.336c-28.075-55.957-95.232-71.723-145.451-34.197l-120.064 89.728 65.877-292.288zM213.333 149.376c0-0.038 0-0.083 0-0.128 0-11.735 9.513-21.248 21.248-21.248 0 0 0 0 0 0h554.837c0.013 0 0.028 0 0.043 0 11.711 0 21.205 9.494 21.205 21.205 0 0.060 0 0.12-0.001 0.18v-0.009 63.957h-597.333v-63.957z" />
<glyph unicode="&#xe951;" glyph-name="cup-1" d="M762.857 328.576c-30.035-46.396-72.579-83.931-122.857-107.825v-30.922c48.67-9.955 85.333-52.975 85.333-104.496v-64c0-23.564-19.103-42.667-42.667-42.667h-341.333c-23.564 0-42.667 19.103-42.667 42.667v64c0 51.637 36.544 94.598 85.333 104.512v30.863c-50.35 23.9-92.937 61.474-122.975 107.948-131.245 83.204-218.358 229.752-218.358 396.676 0 58.903 47.794 106.667 106.805 106.667h65.994c9.873 48.662 52.848 85.333 104.344 85.333h384.38c51.509 0 94.466-36.705 104.341-85.333h65.997c59.006 0 106.805-47.758 106.805-106.805 0-166.888-87.167-313.44-218.476-396.619v0zM213.333 746.667h-63.861c-11.896 0-21.472-9.57-21.472-21.333 0-91.511 31.997-175.535 85.413-241.5-0.053 2.326-0.080 4.659-0.080 6.997v255.836zM810.667 746.667v-255.836c0-2.348-0.027-4.689-0.081-7.024 53.417 65.945 85.414 149.935 85.414 241.388 0 11.903-9.577 21.472-21.472 21.472h-63.861zM469.333 195.020v-45.686c0-23.564-19.103-42.667-42.667-42.667h-21.131c-12.050 0-21.536-9.479-21.536-21.333v-21.333h256v21.333c0 11.712-9.644 21.333-21.536 21.333h-21.131c-23.564 0-42.667 19.103-42.667 42.667v45.692c-13.935-1.994-28.18-3.025-42.667-3.025s-28.733 1.030-42.667 3.020v0zM298.667 810.666v-319.835c0-118.087 95.419-213.498 213.333-213.498 117.834 0 213.333 95.569 213.333 213.498v319.835c0 11.762-9.534 21.334-21.143 21.334h-384.38c-11.618 0-21.143-9.548-21.143-21.334zM512.001 503.716l-62.498-31.541c-13.864-6.997-22.95-0.619-20.309 14.164l11.936 66.805-50.562 47.311c-11.216 10.495-7.705 20.761 7.757 22.918l69.874 9.747 31.249 60.781c6.932 13.483 18.188 13.45 25.103 0l31.249-60.781 69.874-9.747c15.5-2.162 18.946-12.449 7.757-22.918l-50.562-47.311 11.936-66.805c2.648-14.819-6.479-21.144-20.309-14.164l-62.498 31.541z" />
<glyph unicode="&#xe952;" glyph-name="dashboard-1" d="M393.749 497.067l-112.747 112.768c-7.41 7.665-11.977 18.12-11.977 29.641 0 23.564 19.103 42.667 42.667 42.667 11.521 0 21.976-4.567 29.653-11.989l109.62-109.62c17.63 9.742 38.65 15.475 61.010 15.475 70.692 0 128-57.308 128-128s-57.308-128-128-128c-70.692 0-128 57.308-128 128 0 17.702 3.593 34.564 10.090 49.897l-0.316-0.839zM512-21.333c-259.2 0-469.333 210.133-469.333 469.333s210.133 469.333 469.333 469.333 469.333-210.133 469.333-469.333-210.133-469.333-469.333-469.333zM512 64c212.075 0 384 171.925 384 384s-171.925 384-384 384-384-171.925-384-384 171.925-384 384-384zM512 405.333c23.564 0 42.667 19.103 42.667 42.667s-19.103 42.667-42.667 42.667v0c-23.564 0-42.667-19.103-42.667-42.667s19.103-42.667 42.667-42.667v0zM469.333 725.333c0 23.564 19.103 42.667 42.667 42.667s42.667-19.103 42.667-42.667v0-42.667c0-23.564-19.103-42.667-42.667-42.667s-42.667 19.103-42.667 42.667v0 42.667zM234.667 405.333c-23.564 0-42.667 19.103-42.667 42.667s19.103 42.667 42.667 42.667v0h42.667c23.564 0 42.667-19.103 42.667-42.667s-19.103-42.667-42.667-42.667v0h-42.667zM746.667 405.333c-23.564 0-42.667 19.103-42.667 42.667s19.103 42.667 42.667 42.667v0h42.667c23.564 0 42.667-19.103 42.667-42.667s-19.103-42.667-42.667-42.667v0h-42.667zM673.835 670.165c7.665 7.41 18.12 11.977 29.641 11.977 23.564 0 42.667-19.103 42.667-42.667 0-11.521-4.567-21.976-11.989-29.653l-30.153-30.153c-7.769-8.036-18.647-13.026-30.69-13.026-23.564 0-42.667 19.103-42.667 42.667 0 12.043 4.989 22.92 13.014 30.678l30.177 30.177z" />
<glyph unicode="&#xe953;" glyph-name="delivery-1" d="M419.392 170.667c-18.096-50.181-65.302-85.408-120.736-85.408s-102.64 35.227-120.454 84.516l-0.282 0.892h-28.736c-58.841 0.061-106.518 47.775-106.518 106.624 0 0.075 0 0.15 0 0.225v-0.012 426.325c0 58.965 47.616 106.837 106.517 106.837h448.299c58.841-0.061 106.518-47.775 106.518-106.624 0-0.075 0-0.15 0-0.225v0.012-21.163h128c13.14-0.005 24.89-5.949 32.714-15.293l0.054-0.067 106.667-128c6.154-7.34 9.894-16.886 9.899-27.306v-234.604c0-0.019 0-0.041 0-0.064 0-58.903-47.744-106.654-106.644-106.667h-7.297c-18.104-50.165-65.303-85.377-120.725-85.377s-102.621 35.213-120.444 84.486l-0.282 0.892h-206.528zM419.392 256h199.275v447.829c0.001 0.063 0.001 0.138 0.001 0.214 0 11.721-9.472 21.23-21.179 21.29h-448.305c-11.718-0.084-21.185-9.603-21.185-21.333 0-0.060 0-0.12 0.001-0.18v0.009-426.325c0-11.968 9.493-21.504 21.184-21.504h28.736c18.104 50.165 65.303 85.377 120.725 85.377s102.621-35.213 120.444-84.486l0.282-0.892zM867.392 256h7.275c0 0 0 0 0 0 11.782 0 21.333 9.551 21.333 21.333 0 0.022 0 0.045 0 0.067v-0.003 219.157l-83.989 100.779h-108.011v-263.275c12.705 4.637 27.373 7.318 42.667 7.318 55.422 0 102.62-35.212 120.443-84.485l0.282-0.892zM746.667 170.667c23.564 0 42.667 19.103 42.667 42.667s-19.103 42.667-42.667 42.667v0c-23.564 0-42.667-19.103-42.667-42.667s19.103-42.667 42.667-42.667v0zM298.667 170.667c23.564 0 42.667 19.103 42.667 42.667s-19.103 42.667-42.667 42.667v0c-23.564 0-42.667-19.103-42.667-42.667s19.103-42.667 42.667-42.667v0z" />
<glyph unicode="&#xe954;" glyph-name="diamond-1" d="M154.368 661.333h133.888l51.2 170.667h-99.755l-85.333-170.667zM428.544 832l-51.2-170.667h269.312l-51.2 170.667h-166.912zM684.544 832l51.2-170.667h133.888l-85.333 170.667h-99.755zM855.765 576h-121.771l-123.733-343.701 245.504 343.701zM413.739 232.299l-123.733 343.701h-121.771l245.504-343.701zM213.333 917.333h597.333c16.612-0.001 31.006-9.494 38.053-23.352l0.112-0.243 128-256c2.833-5.553 4.493-12.112 4.493-19.059 0-9.306-2.979-17.916-8.036-24.928l0.086 0.126-426.667-597.333c-7.835-10.864-20.456-17.853-34.709-17.853s-26.875 6.989-34.623 17.728l-0.086 0.126-426.667 597.333c-4.97 6.887-7.949 15.497-7.949 24.802 0 6.947 1.66 13.506 4.605 19.302l-0.112-0.243 128 256c7.159 14.1 21.554 23.594 38.165 23.595v0zM512 211.307l131.285 364.693h-262.571l131.285-364.693z" />
<glyph unicode="&#xe955;" glyph-name="dollar-1" d="M554.667 474.048c130.667-67.819 181.333-111.701 191.061-199.787 11.179-101.077-74.197-189.397-191.061-207.061v-45.867c0-23.564-19.103-42.667-42.667-42.667s-42.667 19.103-42.667 42.667v0 45.589c-44.117 6.165-84.523 21.76-120.747 44.16-28.651 17.707-48.96 35.669-60.544 48.768-6.484 7.443-10.437 17.239-10.437 27.959 0 23.564 19.103 42.667 42.667 42.667 12.556 0 23.845-5.423 31.652-14.055l0.033-0.037c1.152-1.28 4.331-4.523 9.451-9.045 9.024-8 19.755-16.085 32-23.637 21.789-13.848 47.23-24.344 74.446-29.994l1.479-0.257v268.501c-130.667 67.819-181.333 111.701-191.061 199.787-11.179 101.077 74.197 189.397 191.061 207.061v45.867c0 23.564 19.103 42.667 42.667 42.667s42.667-19.103 42.667-42.667v0-45.589c44.117-6.165 84.523-21.76 120.747-44.16 28.651-17.707 48.96-35.669 60.544-48.768 6.484-7.443 10.437-17.239 10.437-27.959 0-23.564-19.103-42.667-42.667-42.667-12.556 0-23.845 5.423-31.652 14.055l-0.033 0.037c-2.986 3.161-6.068 6.115-9.292 8.911l-0.159 0.135c-9.481 8.374-19.936 16.169-31.010 23.063l-0.99 0.574c-21.789 13.848-47.23 24.344-74.446 29.994l-1.479 0.257v-268.501zM554.667 153.835c67.627 14.699 111.573 62.869 106.24 111.061-4.587 41.6-31.893 70.357-106.24 112.235v-223.275zM469.333 742.144c-67.627-14.677-111.573-62.848-106.24-111.040 4.587-41.6 31.893-70.357 106.24-112.235v223.275z" />
<glyph unicode="&#xe956;" glyph-name="dollar-2" d="M512-21.333c-259.2 0-469.333 210.133-469.333 469.333s210.133 469.333 469.333 469.333 469.333-210.133 469.333-469.333-210.133-469.333-469.333-469.333zM512 64c212.075 0 384 171.925 384 384s-171.925 384-384 384-384-171.925-384-384 171.925-384 384-384zM554.667 218.624v-47.957c0-23.564-19.103-42.667-42.667-42.667s-42.667 19.103-42.667 42.667v0 47.552c-22.097 5.347-41.554 13.793-59.077 24.996l0.773-0.462c-17.621 11.008-30.251 22.336-37.824 30.997-6.457 7.436-10.393 17.212-10.393 27.908 0 23.564 19.103 42.667 42.667 42.667 12.713 0 24.127-5.56 31.943-14.38l0.039-0.045c2.432-2.795 8.981-8.661 18.816-14.805 16.512-10.325 35.093-16.427 55.531-16.427 40.107 0 66.304 23.765 64.064 44.331-2.112 19.285-19.904 34.133-76.715 63.595l-6.805 3.541c-0.492 0.24-0.737 0.368-0.98 0.498l0.234-0.114-6.037 3.136c-82.837 42.944-115.755 70.4-122.261 130.069-6.848 62.677 40.043 116.949 106.027 133.653v47.957c0 23.564 19.103 42.667 42.667 42.667s42.667-19.103 42.667-42.667v0-47.552c22.097-5.347 41.554-13.793 59.077-24.996l-0.773 0.462c17.621-11.008 30.251-22.336 37.824-30.997 6.457-7.436 10.393-17.212 10.393-27.908 0-23.564-19.103-42.667-42.667-42.667-12.713 0-24.127 5.56-31.943 14.38l-0.039 0.045c-2.432 2.795-8.981 8.661-18.816 14.805-16.512 10.325-35.093 16.427-55.531 16.427-40.107 0-66.304-23.765-64.064-44.331 2.112-19.285 19.904-34.133 76.715-63.595 302.849-145.575 307.311-147.926 311.772-150.277l-298.182 143.237c82.837-42.965 115.755-70.443 122.261-130.091 6.848-62.677-40.043-116.949-106.027-133.653z" />
<glyph unicode="&#xe957;" glyph-name="double-arrow-down-1" d="M115.503 542.17l396.497-396.497 396.497 396.497c16.662 16.662 43.677 16.662 60.34 0s16.662-43.677 0-60.34l-426.667-426.667c-16.662-16.662-43.677-16.662-60.34 0l-426.667 426.667c-16.662 16.662-16.662 43.677 0 60.34s43.677 16.662 60.34 0zM115.503 840.837l396.497-396.497 396.497 396.497c16.662 16.662 43.677 16.662 60.34 0s16.662-43.677 0-60.34l-426.667-426.667c-16.662-16.662-43.677-16.662-60.34 0l-426.667 426.667c-16.662 16.662-16.662 43.677 0 60.34s43.677 16.662 60.34 0z" />
<glyph unicode="&#xe958;" glyph-name="double-arrow-left-1" d="M606.165 844.501l-396.501-396.501 396.501-396.501c7.41-7.665 11.977-18.12 11.977-29.641 0-23.564-19.103-42.667-42.667-42.667-11.521 0-21.976 4.567-29.653 11.989l-426.655 426.655c-7.718 7.721-12.492 18.386-12.492 30.165s4.774 22.445 12.492 30.165l426.667 426.667c7.665 7.41 18.12 11.977 29.641 11.977 23.564 0 42.667-19.103 42.667-42.667 0-11.521-4.567-21.976-11.989-29.653l0.012 0.012zM904.832 844.501l-396.501-396.501 396.501-396.501c7.41-7.665 11.977-18.12 11.977-29.641 0-23.564-19.103-42.667-42.667-42.667-11.521 0-21.976 4.567-29.653 11.989l-426.655 426.655c-7.718 7.721-12.492 18.386-12.492 30.165s4.774 22.445 12.492 30.165l426.667 426.667c7.665 7.41 18.12 11.977 29.641 11.977 23.564 0 42.667-19.103 42.667-42.667 0-11.521-4.567-21.976-11.989-29.653l0.012 0.012z" />
</font>
</defs>
</svg>
